<?xml version="1.0" standalone="no"?>
<!DOCTYPE svg PUBLIC "-//W3C//DTD SVG 1.1//EN" "http://www.w3.org/Graphics/SVG/1.1/DTD/svg11.dtd" >
<svg xmlns="http://www.w3.org/2000/svg">
<metadata>
This is a custom SVG webfont generated by Font Squirrel.
Copyright   : Typeface  The Monotype Corporation plc Data  The Monotype Corporation plc Type Solutions Inc 19901992 All rights reserved
</metadata>
<defs>
<font id="BellMTRegular" horiz-adv-x="1024" >
<font-face units-per-em="2048" ascent="1638" descent="-410" />
<missing-glyph horiz-adv-x="512" />
<glyph unicode=" "  horiz-adv-x="512" />
<glyph unicode="&#x09;" horiz-adv-x="512" />
<glyph unicode="&#xa0;" horiz-adv-x="512" />
<glyph unicode="!" horiz-adv-x="448" d="M126 78q0 42 29.5 70t68.5 28q41 0 70 -29t29 -69q0 -41 -29 -70t-70 -29q-40 0 -69 29t-29 70zM126 1202q0 55 27 90t66 35q101 0 101 -143q0 -45 -24 -232q-19 -151 -36.5 -350.5t-17.5 -224.5q0 -50 -1.5 -55.5t-18.5 -5.5q-27 0 -27 16l1 38q0 57 -18.5 290.5 t-45.5 456.5q-6 52 -6 85z" />
<glyph unicode="&#x22;" horiz-adv-x="832" d="M133 1265q0 122 98 122q41 0 71.5 -28.5t30.5 -82.5q0 -38 -26 -178l-54 -295h-43l-55 296q-22 122 -22 166zM498 1266q0 121 103 121q47 0 73 -31.5t26 -78.5q0 -82 -19 -181l-57 -293h-48l-54 292q-24 128 -24 171z" />
<glyph unicode="#" horiz-adv-x="1365" d="M94 367v88h231l85 406h-316v88h335l88 416h87l-88 -416h455l87 416h88l-88 -416h213v-88h-230l-85 -406h315v-88h-333l-85 -414h-89l87 414h-458l-84 -414h-89l86 414h-212zM412 457h457l85 404h-457z" />
<glyph unicode="$" d="M93 245q0 40 26 70.5t60 30.5q37 0 61 -27t24 -62q0 -55 -55 -86q-19 -11 -19 -28q0 -44 80 -93t201 -58v490q-235 70 -290 148t-55 164q0 138 101.5 213.5t243.5 83.5v122h57v-122q166 -10 253 -79.5t87 -141.5q0 -36 -21.5 -67t-59.5 -31q-28 0 -50.5 20t-22.5 56 q0 26 24 60q19 27 19 40q0 35 -63 65.5t-166 38.5v-422q222 -59 305 -136t83 -200q0 -145 -97.5 -234.5t-290.5 -105.5v-246h-57v246q-160 0 -269 85.5t-109 205.5zM207 857q0 -74 62.5 -122t201.5 -86v403q-122 -11 -193 -60t-71 -135zM528 -8q133 3 209 70t76 155 q0 72 -53.5 132t-231.5 118v-475z" />
<glyph unicode="%" horiz-adv-x="1515" d="M83 991q0 151 89.5 247.5t208.5 96.5q113 0 203.5 -94.5t90.5 -241.5q0 -154 -90.5 -246.5t-204.5 -92.5q-113 0 -205 91.5t-92 239.5zM208 979q0 -134 48 -206t120 -72q75 0 126.5 77.5t51.5 236.5q0 148 -52.5 216t-109.5 68q-80 0 -132 -78t-52 -242zM326 -24 l815 1354h64l-817 -1354h-62zM840 303q0 145 87.5 244.5t210.5 99.5q111 0 202.5 -93.5t91.5 -242.5q0 -160 -92.5 -249.5t-202.5 -89.5q-117 0 -207 94.5t-90 236.5zM964 291q0 -134 48.5 -206t120.5 -72q80 0 129 84t49 231q0 141 -51 212.5t-111 71.5q-88 0 -136.5 -84.5 t-48.5 -236.5z" />
<glyph unicode="&#x26;" horiz-adv-x="1408" d="M94 283q0 122 79 222.5t267 220.5q-181 179 -181 314q0 114 81 185t186 71q93 0 166 -59.5t73 -155.5q0 -129 -178 -281q235 -193 358 -431q129 200 129 311q0 50 -31.5 80.5t-87.5 30.5q-49 0 -49 18q0 21 21 21l176 -7l236 2q28 0 28 -19q0 -18 -36 -18 q-72 -2 -123 -53t-121 -202q-67 -145 -119 -208q91 -174 140 -213t98 -39q66 0 127 54q7 7 12 7q20 0 20 -20q0 -19 -91 -76t-181 -57q-54 0 -100.5 32.5t-133.5 184.5q-224 -217 -430 -217q-141 0 -238 86t-97 216zM254 368q0 -124 80 -208.5t186 -84.5q154 0 317 164 q-82 149 -144.5 228.5t-219.5 225.5q-102 -67 -160.5 -142t-58.5 -183zM375 1095q0 -118 178 -262q128 113 128 233q0 73 -50 127.5t-117 54.5q-63 0 -101 -46t-38 -107z" />
<glyph unicode="'" horiz-adv-x="363" d="M81 1258q0 129 97 129q46 0 75 -30t29 -80q0 -35 -26 -179l-54 -295h-44l-54 296q-23 124 -23 159z" />
<glyph unicode="(" horiz-adv-x="619" d="M99 415q0 163 53.5 357.5t148.5 352.5t132.5 198.5t52.5 40.5q49 0 49 -19q0 -6 -8 -16q-110 -127 -220 -398t-110 -545q0 -264 101 -517.5t207 -363.5q20 -21 20 -29q0 -20 -61 -20q-45 0 -147.5 172t-160 368.5t-57.5 418.5z" />
<glyph unicode=")" horiz-adv-x="619" d="M84 -525q0 6 8 16q110 127 220 398t110 545q0 280 -105.5 530t-202.5 351q-20 21 -20 29q0 20 61 20q45 0 147.5 -172t160 -368t57.5 -419q0 -132 -44 -322.5t-171.5 -408.5t-171.5 -218q-49 0 -49 19z" />
<glyph unicode="*" d="M84 930q0 55 74 55q41 0 122 -13l157 -25l21 -5q11 0 11 8q0 6 -23 21q-17 11 -56 40q-88 66 -150.5 109.5t-62.5 82.5q0 20 16 34t35 14q26 0 64.5 -37.5t134.5 -156.5q62 -74 67 -74q8 0 8 10l-3 15q-51 180 -51 281q0 82 52 82q59 0 59 -86q0 -36 -9 -115l-19 -162 l-1 -9q0 -13 8 -13q6 0 13 12q163 253 236 253q17 0 32 -12.5t15 -32.5t-9.5 -33t-107.5 -85.5t-139 -100.5q-13 -8 -13 -16q0 -10 14 -10q6 0 13 2q34 8 134.5 23t122.5 15q90 0 90 -58q0 -50 -58 -50q-25 0 -112 13l-171 26l-21 4q-11 0 -11 -8q0 -5 11 -12 q87 -55 175 -127.5t88 -109.5q0 -19 -16.5 -33t-36.5 -14q-35 0 -84 54.5t-142 194.5q-10 15 -15 15q-7 0 -7 -12q0 -6 2 -17q25 -175 25 -286q0 -67 -50 -67q-58 0 -58 74q0 45 17.5 145.5t29.5 144.5l2 6q0 11 -10 11l-7 -6q-57 -88 -132.5 -179.5t-105.5 -91.5 q-21 0 -34.5 16t-13.5 33q0 21 10 35.5t82 76.5t135 103q35 23 35 29t-8 6l-9 -1q-19 -4 -137 -24t-151 -20q-77 0 -77 58z" />
<glyph unicode="+" horiz-adv-x="1365" d="M145 488v88h492v495h88v-495h495v-88h-495v-489h-88v489h-492z" />
<glyph unicode="," horiz-adv-x="448" d="M80 -298q0 8 21 20q47 26 93 92t46 133q0 37 -38 40q-60 5 -83 35t-23 59q0 40 29 72t83 32q52 0 96 -46t44 -106q0 -85 -53 -174.5t-118 -133.5t-80 -44q-17 0 -17 21z" />
<glyph unicode="-" horiz-adv-x="704" d="M34 389v56q0 31 5.5 35.5t45.5 4.5h553q25 0 28.5 -4.5t3.5 -35.5v-56q0 -29 -5 -33t-41 -4h-539q-40 0 -45.5 5t-5.5 32z" />
<glyph unicode="." horiz-adv-x="448" d="M126 86q0 40 29 69t69 29t69.5 -28t29.5 -70q0 -41 -29 -70t-70 -29q-40 0 -69 29t-29 70z" />
<glyph unicode="/" d="M116 -37l704 1463h88l-705 -1463h-87z" />
<glyph unicode="0" d="M57 529q0 151 64.5 278t166 203.5t231.5 76.5q181 0 314 -164.5t133 -381.5q0 -219 -134 -389t-329 -170q-188 0 -317 162t-129 385zM223 528q0 -234 84 -370t203 -136q124 0 205 113.5t81 418.5q0 251 -76.5 373t-202.5 122q-133 0 -213.5 -140t-80.5 -381z" />
<glyph unicode="1" d="M290 991q0 15 36 16q69 1 148 22t123 52q11 8 18 8q16 0 16 -28v-129q-6 -359 -6 -457q0 -331 14 -379.5t103 -56.5q40 -4 40 -17q0 -24 -31 -24q-8 0 -18 1q-34 3 -112 3q-162 0 -251 -4q-19 -1 -30 -1q-32 0 -32 18q0 19 34 21q104 7 127 48.5t23 186.5q0 398 -4 510 t-35 149t-98 37q-43 0 -54 5.5t-11 18.5z" />
<glyph unicode="2" d="M96 19q0 9 16 21q360 264 486 446t126 334q0 87 -42.5 151t-131.5 64q-145 0 -239.5 -127t-94.5 -262q0 -62 24 -93t72 -31q37 0 86 31t83 125q9 25 22 25q20 0 20 -20q0 -18 -28.5 -74t-89 -99.5t-118.5 -43.5q-71 0 -125 55.5t-54 129.5q0 139 160.5 286.5t333.5 147.5 q116 0 201 -68t85 -198q0 -125 -82 -236.5t-332 -303.5q-133 -103 -179 -143h302q132 0 173.5 16t90.5 84q26 36 37 36q16 0 16 -16l-113 -254q-53 -4 -99 -4l-438 5q-103 0 -136 -3q-32 0 -32 19z" />
<glyph unicode="3" d="M105 187q0 41 27.5 72t71.5 31q31 0 51 -21.5t20 -47.5q0 -14 -13 -38q-13 -25 -13 -48q0 -52 50 -84.5t121 -32.5q95 0 160.5 56t109 170t43.5 171q0 74 -41 116.5t-98 42.5q-41 0 -120 -62q-62 -48 -70 -48q-18 0 -18 19q0 8 93 79q169 129 201.5 194t32.5 122 q0 73 -44 120t-113 47q-95 0 -170 -77t-75 -174q0 -51 20 -76.5t60 -25.5q60 0 109 92q7 12 17 12q19 0 19 -18q0 -22 -57 -87.5t-133 -65.5q-68 0 -105 42t-37 100q0 119 115.5 219t281.5 100q128 0 193 -58t65 -139q0 -60 -32.5 -106t-74.5 -76l-145 -102q132 0 208 -70 t76 -172q0 -139 -137.5 -261t-326.5 -122q-151 0 -236.5 67.5t-85.5 139.5z" />
<glyph unicode="4" d="M53 421q0 7 1 20q276 341 579 649q24 3 31 3q16 0 21 -12q3 -79 3 -135l-5 -365q0 -44 2 -127q146 0 191 41t48 137q1 24 19 24q19 0 19 -26q0 -9 -1 -22q-5 -48 -5 -135l4 -217q0 -21 -20 -21q-14 0 -18 19q-21 94 -51 127t-114 33q-15 0 -72 -2q0 -269 3.5 -299.5 t30.5 -52.5t96 -22q32 0 32 -17q0 -21 -55 -21h-378q-56 0 -56 21q0 17 48 18q88 2 110.5 45t29.5 328q-229 0 -492 -8q-1 12 -1 17zM122 450q160 6 346 6q15 0 78 -2q12 175 9 490q-141 -158 -229.5 -249.5t-203.5 -244.5z" />
<glyph unicode="5" d="M115 198q0 47 27.5 70t62.5 23q28 0 52 -19.5t24 -47.5q0 -16 -8 -45q-9 -31 -9 -48q0 -38 35.5 -75t116.5 -37q146 0 230 121.5t84 304.5q0 110 -41.5 165t-124.5 55q-98 0 -170 -70q-73 -70 -81 -139q-5 -42 -23 -42q-17 0 -17 20q0 6 46 296l34 221q13 89 24 119 q177 -29 214 -29q137 0 227 118q17 23 30 23q15 0 15 -13q0 -72 -100 -158.5t-260 -86.5q-37 0 -103 6q-46 -232 -55 -318q56 46 114 69t119 23q121 0 216 -80t95 -215q0 -167 -147.5 -297.5t-324.5 -130.5q-126 0 -214 61.5t-88 155.5z" />
<glyph unicode="6" d="M110 471q0 204 82.5 342t196.5 210.5t282 72.5q120 0 195.5 -53t75.5 -126q0 -45 -27 -72t-60 -27q-77 0 -77 81q0 79 -4 97t-39.5 39t-93.5 21q-140 0 -238 -125.5t-131 -353.5q69 53 142.5 79.5t152.5 26.5q152 0 254 -94.5t102 -232.5q0 -140 -113 -257.5t-301 -117.5 q-174 0 -286.5 127.5t-112.5 362.5zM259 344q0 -151 73.5 -238.5t184.5 -87.5q117 0 181 95.5t64 223.5t-64 214t-174 86q-108 0 -186.5 -75t-78.5 -218z" />
<glyph unicode="7" d="M138 813q0 19 31.5 151t42.5 152t23 20q15 0 24 -22q11 -25 34.5 -36.5t108.5 -11.5l226 3q120 0 280 -6l-9 -29q-98 -173 -166.5 -344t-84.5 -260t-27 -319q-8 -160 -95 -160q-37 0 -58.5 30t-21.5 73q0 107 152 441l187 402q8 16 8 23q0 13 -19 13l-130 1 q-237 0 -298.5 -1.5t-101 -39.5t-56.5 -72q-16 -29 -31 -29q-19 0 -19 21z" />
<glyph unicode="8" d="M145 254q0 77 55 140t201 147q-214 89 -214 255q0 123 101 221.5t255 98.5q125 0 223 -67.5t98 -175.5q0 -74 -50 -137.5t-160 -127.5q122 -54 183 -128.5t61 -169.5q0 -131 -120.5 -230t-268.5 -99q-142 0 -253 81.5t-111 191.5zM245 247q0 -90 70 -158t194 -68 q122 0 193 68t71 163q0 65 -38 122q-38 56 -125.5 87t-163.5 62q-201 -121 -201 -276zM292 873q0 -86 64.5 -135t252.5 -111q97 50 131.5 106t34.5 130q0 101 -70 159t-166 58q-102 0 -174.5 -57t-72.5 -150z" />
<glyph unicode="9" d="M89 137q0 46 27.5 73.5t63.5 27.5q75 0 75 -75q0 -14 -2 -35q-2 -26 -2 -38q0 -95 146 -95t238.5 126t131.5 377q-76 -54 -150 -81.5t-146 -27.5q-142 0 -249 92.5t-107 241.5q0 161 128 266.5t273 105.5q171 0 291.5 -127.5t120.5 -356.5q0 -280 -158.5 -469 t-402.5 -189q-129 0 -203.5 52t-74.5 132zM273 749q0 -141 67.5 -226.5t169.5 -85.5q107 0 187 74.5t80 222.5q0 146 -72.5 234t-187.5 88q-107 0 -175.5 -91.5t-68.5 -215.5z" />
<glyph unicode=":" horiz-adv-x="448" d="M126 86q0 40 29 69t69 29t69.5 -28t29.5 -70q0 -41 -29 -70t-70 -29q-40 0 -69 29t-29 70zM126 623q0 40 29 69t69 29q41 0 70 -29t29 -69q0 -41 -29 -70t-70 -29t-69.5 29t-28.5 70z" />
<glyph unicode=";" horiz-adv-x="448" d="M80 -298q0 8 21 20q47 26 93 92t46 133q0 37 -38 40q-60 5 -83 35t-23 59q0 40 29 72t83 32q52 0 96 -46t44 -106q0 -85 -53 -174.5t-118 -133.5t-80 -44q-17 0 -17 21zM126 623q0 40 29 69t70 29q40 0 69 -29t29 -69q0 -41 -29 -70t-69 -29q-41 0 -70 29t-29 70z" />
<glyph unicode="&#x3c;" horiz-adv-x="1365" d="M147 496v78l1071 453v-96l-955 -396l955 -398v-97z" />
<glyph unicode="=" horiz-adv-x="1365" d="M147 261v89h1072v-89h-1072zM147 725v88h1072v-88h-1072z" />
<glyph unicode="&#x3e;" horiz-adv-x="1365" d="M147 40v96l955 397l-955 398v96l1071 -455v-79z" />
<glyph unicode="?" horiz-adv-x="875" d="M107 1188q0 72 75 111t176 39q159 0 276 -115.5t117 -267.5q0 -155 -96.5 -256t-230.5 -101q-87 0 -177 57q-17 -217 -17 -298q0 -23 -4 -28.5t-22 -5.5q-22 0 -22 28l-1 47q0 245 8 352q111 -95 182 -95q87 0 159 101t72 244q0 137 -72.5 220t-163.5 83q-92 0 -92 -64 q0 -10 2 -25q2 -17 2 -27q0 -40 -24.5 -65.5t-59.5 -25.5q-87 0 -87 92zM123 80q0 42 29.5 70.5t69.5 28.5t69.5 -28.5t29.5 -70.5q0 -41 -29 -70t-70 -29t-70 29t-29 70z" />
<glyph unicode="@" horiz-adv-x="1877" d="M97 440q0 413 273.5 697.5t683.5 284.5q319 0 511 -194t192 -493q0 -279 -158.5 -491.5t-391.5 -212.5q-77 0 -116 35t-39 104q0 54 18 145q-230 -285 -394 -285q-81 0 -131 70.5t-50 164.5q0 136 85.5 306t222.5 281.5t245 111.5q69 0 111.5 -34.5t58.5 -103.5l33 110 l157 22l-117 -399q-93 -318 -93 -378q0 -30 20 -54t56 -24q81 0 183.5 80.5t171 240.5t68.5 332q0 266 -180.5 440.5t-467.5 174.5q-236 0 -430.5 -124t-311 -350.5t-116.5 -482.5q0 -350 220.5 -572.5t556.5 -222.5q201 0 369 77.5t273.5 203.5t167.5 272h58 q-85 -273 -327 -443.5t-537 -170.5q-380 0 -627.5 253t-247.5 629zM653 296q0 -57 31.5 -101t84.5 -44q95 0 207.5 121.5t159 268.5t46.5 229q0 62 -33 104.5t-92 42.5q-131 0 -267.5 -236.5t-136.5 -384.5z" />
<glyph unicode="A" horiz-adv-x="1408" d="M6 14q0 16 28 20q115 15 176 156t190 507q118 333 258 638h46q112 -229 309 -783q127 -355 174 -435.5t151 -89.5q33 -3 33 -22q0 -14 -17 -14l-14 1q-92 8 -234 8q-218 0 -280 -7q-31 0 -31 18q0 13 23 16q85 8 117.5 29t32.5 66q0 43 -61 215l-59 172q-52 0 -465 -6 q-104 -277 -104 -349q0 -61 51.5 -90.5t101.5 -32.5q37 -3 37 -23q0 -8 -12 -15q-160 7 -193 7q-168 0 -226 -4q-32 0 -32 18zM401 565q103 5 148 5l281 -5q-37 104 -104 276q-82 205 -108 276q-93 -190 -217 -552z" />
<glyph unicode="B" horiz-adv-x="1259" d="M70 13q0 10 10.5 14t77.5 16q40 7 63 34t35 110t12 247q0 162 4 261.5t4 152.5q0 165 -12.5 265t-35.5 127.5t-94 38.5q-29 4 -29 21q0 18 29 18l182 -3q89 0 167 4q175 9 226 9q185 0 294 -81q108 -81 108 -221q0 -110 -71 -189t-238 -130q186 -49 278.5 -137t92.5 -214 q0 -135 -115 -249q-115 -115 -338 -115q-42 0 -134 5q-59 3 -64 3q-308 0 -416 -6q-36 0 -36 19zM438 264q0 -164 8.5 -183t58 -32t156.5 -13q95 0 154.5 26.5t109.5 104.5t50 187q0 162 -95.5 238t-282.5 76q-63 0 -138 -7q-14 -25 -14 -87zM450 902l1 -148q0 -30 8.5 -38 t46.5 -8q190 0 305 69.5t115 233.5q0 139 -85.5 207.5t-212.5 68.5q-74 0 -169 -30q-9 -219 -9 -355z" />
<glyph unicode="C" horiz-adv-x="1323" d="M99 645q0 198 85.5 357t240.5 247t320 88q88 0 180 -27.5t188 -83.5q55 49 63 66q10 24 29 24q20 0 22 -36l23 -349q0 -30 -2.5 -36.5t-14.5 -6.5q-16 0 -34 43q-66 159 -184 261q-119 101 -258 101q-122 0 -224 -78.5t-158.5 -224t-56.5 -312.5q0 -284 156.5 -461.5 t349.5 -177.5q131 0 241 83t166 192q15 30 31 30q22 0 22 -24q0 -29 -76 -127t-199.5 -159t-265.5 -61q-167 0 -317.5 85t-238.5 235t-88 352z" />
<glyph unicode="D" horiz-adv-x="1557" d="M27 9q0 12 12 16t74 12q80 11 112.5 64t40.5 330l16 529q0 92 -12.5 177.5t-39 110t-84.5 33.5q-42 6 -42 23q0 21 21 21q20 0 122.5 -8.5t224.5 -8.5l206 4q391 0 591 -190t200 -479q0 -205 -96 -356.5t-240 -228.5t-384 -77q-54 0 -137 6q-148 12 -166 12 q-328 0 -386 -7q-33 0 -33 17zM437 342q0 -132 17.5 -188.5t75 -93t184.5 -36.5q182 0 295 86t176.5 229t63.5 304q0 238 -145 431t-451 193q-136 0 -158.5 -9t-22.5 -53q0 -39 -7 -139q-10 -146 -13 -228l-9 -275q-6 -193 -6 -221z" />
<glyph unicode="E" horiz-adv-x="1344" d="M60 16q0 20 33 20q111 0 146 59t35 287l-1 205l3 192q0 58 -6.5 219.5t-12 184.5t-31 45.5t-112.5 45.5q-26 7 -26 22q0 18 35 18l204 -11q108 -5 531 -5q278 0 284 -1q29 -112 57 -314q-5 -8 -11 -8q-7 0 -15 8q-69 111 -132 169t-126.5 82.5t-218.5 24.5 q-146 0 -231 -17q-8 -10 -8 -37q0 -7 -2 -25q-10 -80 -10 -434q0 -15 2 -42q76 -3 104 -3q126 0 182.5 37.5t98.5 161.5q7 21 20 21q19 0 19 -29l-4 -40q-8 -79 -8 -163q0 -136 5 -245q0 -34 -19 -34q-14 0 -19 24q-21 118 -88 170t-291 52q-3 -73 -3 -236q0 -211 15 -268 t72 -90.5t193 -33.5q389 0 502 268q14 33 29 33q16 0 16 -22q0 -12 -5 -26q-6 -19 -29 -142q-5 -26 -38 -156l-419 1q-90 0 -264.5 7.5t-309 8t-140.5 5.5t-6 11z" />
<glyph unicode="F" horiz-adv-x="1280" d="M60 1271q0 16 28 18q250 20 945 20q119 0 129.5 -3.5t15 -13t27 -138.5t22.5 -135q0 -21 -18 -21q-13 0 -25 20q-141 245 -458 245q-109 0 -176.5 -9.5t-78.5 -23t-14.5 -125.5t-3.5 -391q79 -4 109 -4q144 0 200.5 61.5t59.5 127.5q2 44 23 44q22 0 22 -30q0 -10 -2 -25 q-7 -58 -7 -297v-116q0 -42 -25 -42q-21 0 -22 31q-3 90 -57 147.5t-213 57.5q-26 0 -88 -3l-3 -247q0 -259 8 -289.5t34.5 -63t110.5 -37.5q45 -2 45 -22q0 -22 -32 -22q-12 0 -63 5q-104 10 -184 10q-68 0 -189 -8l-56 -3q-32 0 -32 20t47 20q64 0 92 36t36.5 183.5 t8.5 389.5q0 228 -8 359.5t-22.5 172.5t-43.5 58.5t-110 22.5q-32 2 -32 20z" />
<glyph unicode="G" horiz-adv-x="1579" d="M91 643q0 198 98.5 358.5t269.5 249t348 88.5q166 0 358 -95q54 -27 76 -27q31 0 48 27q15 23 27 23q23 0 27 -58q6 -91 29 -278q2 -10 2 -18q0 -24 -21 -24q-13 0 -27 32q-82 180 -216.5 278t-286.5 98q-125 0 -242 -75.5t-191 -233t-74 -335.5q0 -254 152 -439 t380 -185q81 0 138 25t107.5 72t61 70t10.5 121q0 164 -43.5 216t-139.5 52l-31 -1q-29 0 -29 19q0 23 32 23l53 -2l226 3l277 6q23 0 23 -21t-26 -23q-62 -6 -101 -27t-48 -48t-9 -91q0 -234 -11 -257t-186 -105t-352 -82q-293 0 -501 188t-208 476z" />
<glyph unicode="H" horiz-adv-x="1557" d="M59 5q0 17 31 21q77 9 110 43t45.5 255t12.5 537q0 257 -24 324t-117 74q-21 2 -21 16q0 20 43 20l403 6q43 0 51.5 -2.5t8.5 -16.5q0 -16 -26 -19q-99 -10 -120.5 -36t-21.5 -324q0 -31 3 -217q102 -8 240 -8q178 0 426 8l9 278q0 183 -36.5 240.5t-122.5 57.5 q-50 0 -50 21q0 19 30 19l291 -10l247 5q29 0 29 -18q0 -16 -19 -16q-76 0 -118 -22t-55.5 -75t-22 -302.5t-8.5 -362.5l-3 -246q0 -115 22 -149.5t65.5 -54t89.5 -24.5q32 -4 32 -19q0 -16 -27 -16l-308 8l-201 -7q-35 0 -35 18q0 15 25 16q80 5 104.5 21t39.5 61t17 152 l5 363q-86 6 -175 6q-387 0 -491 -14q-8 -192 -8 -316q0 -139 6 -171t37.5 -59.5t86.5 -38.5q34 -7 34 -22q0 -18 -22 -18q-7 0 -20 2q-54 6 -224 6q-185 0 -227 -8q-9 -1 -18 -1q-23 0 -23 15z" />
<glyph unicode="I" horiz-adv-x="768" d="M118 1301q0 18 21 18l182 -4l279 4q50 0 50 -20q0 -15 -27 -19q-111 -14 -138.5 -80t-27.5 -488q0 -155 8 -349t18 -232t38 -62t104 -34q25 -3 25 -19q0 -18 -23 -18l-248 2l-211 -3q-35 0 -35 20q0 21 28 21q93 2 109 62t16 383q0 312 -5.5 505t-32.5 236t-102 54 q-28 5 -28 23z" />
<glyph unicode="J" horiz-adv-x="789" d="M3 141q0 45 25 72t64 27q38 0 61 -23.5t23 -53.5q0 -18 -12 -41q-17 -29 -17 -44q0 -25 21 -41t51 -16q71 0 117 48.5t54 152t8 445.5q0 417 -11.5 501t-134.5 96q-29 3 -29 21q0 23 24 23l16 -1q106 -9 278 -9q76 0 132 3q33 2 50 2q31 0 31 -19q0 -20 -26 -20 q-79 0 -112.5 -32.5t-41 -171.5t-7.5 -305l1 -364q0 -221 -119 -317t-235 -96q-89 0 -150 44t-61 119z" />
<glyph unicode="K" horiz-adv-x="1387" d="M79 1291q0 22 46 22l81 1l355 4q27 0 27 -17q0 -10 -9 -14.5t-55 -10.5q-47 -6 -59 -11.5t-24 -26t-12 -67.5q0 -113 11 -506q97 65 153 123.5t175.5 187.5t143 171.5t23.5 61.5q0 23 -26.5 41.5t-62.5 24.5q-40 6 -40 23q0 18 33 18q7 0 22 1q37 2 222 2q127 0 177 -2.5 t50 -18.5q0 -17 -28 -21q-93 -13 -161.5 -50.5t-212.5 -176t-248 -268.5q116 0 195 -32.5t131.5 -112t90.5 -269.5q66 -319 236 -333q38 -3 38 -21q0 -15 -18 -15l-92 2q-204 0 -234 -4q-49 65 -63.5 128t-39.5 221q-22 138 -72.5 255t-157.5 117q-71 0 -147 -46.5t-88 -69 t-12 -264.5q0 -170 10.5 -210t46 -63t95.5 -29q36 -4 36 -22q0 -17 -25 -17l-12 1q-28 2 -204 2q-212 0 -240 -4q-14 -2 -21 -2q-23 0 -23 18q0 16 28 20q53 7 79.5 29.5t34 52t20 197.5t12.5 280q0 148 -3 251t-12 224.5t-20 146t-31 38t-94 22.5q-25 3 -25 18z" />
<glyph unicode="L" horiz-adv-x="1259" d="M43 11q0 16 30 17q97 6 135 41.5t52 102t14 359.5l1 358q0 174 -15.5 243t-64 105.5t-109.5 41.5q-32 3 -32 21t29 18q7 0 26 -1q159 -9 372 -9l176 3q27 0 27 -20q0 -18 -29 -18q-71 0 -118.5 -28t-63 -64.5t-15.5 -142.5l-8 -473l2 -264q0 -123 10.5 -160t43.5 -66.5 t120 -29.5q7 0 179 6q137 19 246 134t145 206q11 26 27 26q17 0 17 -24q0 -28 -29 -200.5t-36 -197.5q-49 -2 -56 -2q-37 0 -134 3.5t-403 3.5h-254q-14 0 -102 -4.5t-107 -4.5q-76 0 -76 20z" />
<glyph unicode="M" horiz-adv-x="1899" d="M38 6q0 20 35 21q100 3 147 66t47 282l-2 176l14 446q0 156 -46 213.5t-135 68.5q-38 5 -38 21q0 18 28 18q15 0 36 -1l354 -8q101 -219 188 -387q105 -201 163.5 -334t136.5 -263q207 343 480 984l398 -1q21 -3 21 -18t-24 -17q-106 -9 -141.5 -42.5t-44 -112.5 t-16.5 -294t-8 -358q0 -275 4 -320.5t34 -72.5t117 -39q25 -4 25 -19t-31 -15l-389 1h-102q-34 0 -34 16q0 14 23 17q84 11 111.5 31t41 71.5t13.5 256.5l19 480l10 237q0 27 -8 27q-12 0 -20 -16l-198 -391q-190 -375 -233 -480l-62 -151q-29 -69 -35 -75.5t-14 -6.5 q-12 0 -20 26q-18 62 -185 394q-87 187 -208.5 427t-131.5 250.5t-15 10.5q-10 0 -10 -25l-11 -606l-3 -200q0 -159 43.5 -208t124.5 -49q52 0 52 -22q0 -16 -25 -16l-21 1l-65 -1l-141 1q-92 0 -237 -10q-12 8 -12 16z" />
<glyph unicode="N" horiz-adv-x="1536" d="M29 1285q0 19 44 19l294 -2q60 -81 208 -251l320 -371l308 -356q10 181 10 470q0 217 -9 290.5t-66.5 123.5t-143.5 50q-40 0 -40 17q0 10 8.5 14.5t134.5 9t212 4.5l135 -1h22q31 0 31 -18q0 -16 -27 -19q-101 -11 -145.5 -52.5t-53 -119.5t-8.5 -525l-10 -528 q0 -40 -20 -40q-5 0 -13.5 4.5t-89.5 101t-199.5 231.5t-186.5 219q-149 181 -188 223q-145 154 -171 198q-17 30 -31 30q-11 0 -11 -39l2 -155q0 -295 16 -471t33.5 -206.5t61 -61.5t92.5 -31q66 0 66 -24q0 -18 -37 -18l-481 1q-34 0 -34 17q0 20 33 20q123 0 164 54.5 t41 231.5l-8 351q0 311 -17 366.5t-76.5 135t-135.5 89.5q-34 4 -34 18z" />
<glyph unicode="O" horiz-adv-x="1493" d="M89 663q0 135 82 296.5t239.5 266.5t355.5 105q277 0 457.5 -198t180.5 -452q0 -270 -200 -484.5t-481 -214.5q-269 0 -451.5 188t-182.5 493zM312 695q0 -163 50 -334.5t157 -249t229 -77.5q197 0 315.5 191.5t118.5 443.5q0 244 -121 428.5t-316 184.5 q-147 0 -245 -98.5t-143 -235.5t-45 -253z" />
<glyph unicode="P" horiz-adv-x="1259" d="M96 18q0 16 38 24q67 15 93.5 47t32.5 137.5t6 243.5l-3 267l3 288q0 153 -21 195.5t-82 53.5q-66 12 -66 29t30 17l198 -1l318 2q314 0 422.5 -98t108.5 -245q0 -175 -142 -263t-427 -88q-69 0 -160 6q0 -45 -6 -135q-3 -44 -3 -89q0 -34 3.5 -146.5t14 -140.5t46 -54 t76.5 -28q46 -3 46 -21q0 -14 -14 -16.5t-106 -2.5l-275 1q-116 0 -123.5 3.5t-7.5 13.5zM444 737q0 -18 1 -64q147 -5 167 -5q102 0 192 35t131.5 126t41.5 180q0 113 -76.5 191.5t-275.5 78.5q-103 0 -180 -22q-1 -36 -1 -45l4 -230z" />
<glyph unicode="Q" horiz-adv-x="1493" d="M91 635q0 277 195.5 485.5t479.5 208.5q182 0 326.5 -88.5t228 -243.5t83.5 -317q0 -132 -59 -270.5t-155 -235.5t-220.5 -167.5t-293.5 -134.5q-127 -49 -179 -74q41 3 64 3q73 0 129 -23t182 -102q163 -100 247 -100q63 0 106 28t102 101q16 20 29 20q19 0 19 -19 q0 -37 -108 -144t-266 -107q-80 0 -169.5 38.5t-261.5 163.5q-98 70 -159 70t-86.5 -36.5t-34.5 -118.5q-5 -56 -21.5 -79t-56.5 -23q-26 0 -48.5 20t-22.5 51q0 49 54 117.5t143 117.5t285 124q181 69 234 95q-99 -14 -155 -14q-147 0 -291 81.5t-232 232.5t-88 340z M315 685q0 -165 48 -323.5t149 -243.5t234 -85q194 0 314 182.5t120 446.5q0 249 -119 433t-319 184q-196 0 -311.5 -183t-115.5 -411z" />
<glyph unicode="R" horiz-adv-x="1387" d="M69 19q0 17 34 17q76 0 105.5 23t46.5 71.5t17 175.5l-2 204l1 311q0 238 -10.5 315t-37.5 103.5t-125 41.5q-21 3 -21 17q0 16 42 16l592 13q245 0 355.5 -94t110.5 -230q0 -86 -44.5 -157t-105.5 -103t-196 -73q138 -60 192 -125.5t80 -202.5q34 -180 94 -241.5 t157 -65.5q27 -2 27 -20t-31 -18q-280 0 -339.5 18.5t-88.5 204.5q-27 181 -56.5 264.5t-94 128t-201.5 44.5q-52 0 -118 -11q-5 -63 -5 -131q0 -257 7 -332.5t42.5 -110t118.5 -36.5q36 -1 36 -17q0 -19 -44 -19h-495q-43 0 -43 19zM445 828q0 -56 7 -132q192 4 288 27 t163.5 101t67.5 185q0 113 -75 197t-240 84q-90 0 -199 -24q-12 -275 -12 -438z" />
<glyph unicode="S" horiz-adv-x="1067" d="M81 417q4 12 21 12q15 0 24 -22q154 -387 430 -387q137 0 214.5 82.5t77.5 189.5q0 74 -41.5 136t-110 100t-216.5 85q-190 61 -258.5 115.5t-100.5 123t-32 132.5q0 133 120.5 236t295.5 103q66 0 138.5 -21t151.5 -64q27 27 36 56q8 24 23 24q8 0 18 -10q7 -36 20 -145 l24 -188q0 -18 -22 -18q-12 0 -21 20q-53 131 -157 218q-104 86 -227 86q-121 0 -182.5 -73t-61.5 -155q0 -100 67 -153t276 -120q154 -48 230.5 -93t128.5 -126t52 -174q0 -158 -131 -283t-321 -125q-171 0 -344 107q-34 -28 -44 -66q-8 -32 -26 -32q-16 0 -23 41t-29 388z " />
<glyph unicode="T" horiz-adv-x="1472" d="M45 992q5 119 39 321q48 1 61 1q78 0 209 -8q141 -8 432 -8q298 0 388 7q82 8 225 8q12 -72 16 -150q6 -89 12 -125q1 -8 1 -17q0 -24 -21 -24q-13 0 -21.5 8.5t-38.5 56.5q-52 81 -108 122.5t-125 53.5t-279 16q-12 -151 -12 -345q0 -642 27.5 -757t196.5 -115 q41 0 41 -17q0 -20 -39 -20h-615q-24 0 -24 19t47 19q79 0 127.5 44.5t56 120.5t7.5 439q0 310 -21 612q-78 4 -110 4q-216 0 -313 -90t-113 -160q-5 -25 -27 -25q-10 0 -19 9z" />
<glyph unicode="U" horiz-adv-x="1557" d="M64 1288q0 21 42 21h501q43 0 43 -18t-32 -21q-71 -7 -105 -39t-51.5 -113t-17.5 -347q0 -319 18.5 -442t116 -195.5t265.5 -72.5q176 0 268 67t119.5 199t27.5 573q0 227 -47 297.5t-139 70.5q-37 0 -37 21q0 20 49 20h400q27 0 27 -20q0 -14 -22 -17 q-76 -11 -111.5 -48t-46.5 -134t-11 -285q0 -235 -17.5 -399t-75.5 -244.5t-174.5 -130t-286.5 -49.5q-174 0 -296.5 55.5t-166 147t-43.5 273.5l4 277q0 369 -31.5 451.5t-135.5 84.5q-34 0 -34 17z" />
<glyph unicode="V" horiz-adv-x="1387" d="M24 1278q0 19 25 19h524q49 0 49 -17q0 -22 -32 -22q-132 0 -132 -113q0 -27 12 -86t41.5 -145t127 -352.5t124.5 -327.5l214 593q92 252 92 317q0 105 -130 116q-26 2 -26 19q0 11 9.5 14.5t55.5 3.5h334q45 0 54.5 -2.5t9.5 -14.5q0 -18 -39 -24q-75 -11 -112.5 -54.5 t-72 -104t-184.5 -481.5q-53 -148 -240 -638h-59q-47 151 -148 412l-189 487q-88 226 -122.5 282t-67.5 76t-93 25q-25 2 -25 18z" />
<glyph unicode="W" horiz-adv-x="2112" d="M15 1273q0 19 76 19h436q61 0 61 -19q0 -18 -30 -19q-129 -7 -129 -101q0 -21 11 -57t143 -355t209 -486q31 77 132 374t121 373q-72 193 -105.5 217.5t-91.5 31.5q-41 4 -41 21q0 20 73 20h429q39 0 49 -3.5t10 -17.5t-51 -23q-109 -17 -109 -106q0 -140 316 -875 q63 161 123 332l108 304q47 134 53.5 167.5t6.5 61.5q0 120 -126 122q-28 1 -28 19q0 12 9 15.5t51 3.5h243q109 0 124.5 -2t15.5 -18q0 -15 -23 -16q-110 -8 -172 -120.5t-280 -740.5q-115 -330 -154 -420h-28q-81 220 -157 402t-215 536l-322 -938h-30q-48 104 -111.5 257 t-214.5 494.5t-197 408t-85 91.5t-69 28q-31 3 -31 19z" />
<glyph unicode="X" horiz-adv-x="1515" d="M42 1279q0 18 50 18h526q38 0 45.5 -3.5t7.5 -15.5q0 -10 -9 -14.5t-66 -7.5q-34 -3 -58 -21.5t-24 -42.5q0 -29 96 -176t179 -245q49 59 133 178.5t100 153.5t16 61q0 44 -38.5 67.5t-83.5 26.5q-43 3 -43 22q0 17 62 17h419q42 0 51.5 -3t9.5 -15q0 -17 -38 -19 q-92 -4 -170.5 -62t-219.5 -248.5t-157 -222.5q291 -435 411 -564t221 -133q36 -2 36 -22q0 -17 -38 -17q-16 0 -82 4q-94 6 -176 6q-140 0 -267 -6q-16 -1 -32 -1q-48 0 -48 17q0 20 26 20q127 0 127 79q0 83 -294 466q-32 -30 -160.5 -216.5t-128.5 -234.5q0 -34 48.5 -60 t123.5 -32q37 -3 37 -20q0 -19 -35 -19l-37 1l-204 5q-180 0 -247 -7q-42 0 -42 20q0 19 31 19q68 0 124.5 25t95 68.5t170.5 230t183 267.5q-344 502 -423.5 566t-180.5 70q-27 2 -27 20z" />
<glyph unicode="Y" horiz-adv-x="1451" d="M34 1281q0 11 9.5 14.5t56.5 3.5h437q45 0 54 -3t9 -16q0 -16 -25 -18q-126 -10 -126 -76q0 -34 46 -107t280 -395q56 62 170.5 224t135 201.5t20.5 62.5q0 41 -41.5 65.5t-84.5 24.5q-34 0 -34 18q0 19 57 19h377q52 0 52 -21q0 -17 -23 -17q-59 0 -113.5 -27 t-132.5 -121l-174 -235q-137 -184 -148 -216q-16 -47 -16 -249q0 -268 22.5 -318t145.5 -61q32 -3 32 -20q0 -20 -35 -20l-269 6q-97 0 -159 -4q-50 -4 -64 -4q-38 0 -38 20q0 16 28 17q96 4 128 72t32 201q0 146 -18 236q-4 23 -86 163.5t-200.5 311t-169.5 207.5t-99 41 q-36 3 -36 20z" />
<glyph unicode="Z" horiz-adv-x="1301" d="M100 15q3 11 50 90.5t189 289.5l260 385q119 175 163 235q130 177 156 243q-177 8 -276 8q-150 0 -222 -22.5t-120.5 -66.5t-118.5 -146q-34 -50 -45 -50q-16 0 -16 18q0 5 43.5 146.5t52.5 161t17 19.5l149 -10q80 -4 326 -4q341 0 433 12q10 1 15 1q12 0 12 -13 q0 -30 -369 -557q-335 -479 -460 -705q144 -6 246 -6q141 0 221.5 13.5t145 45t96 58.5t100.5 113q63 77 74 77q16 0 16 -23l-106 -324l-42 -3q-912 0 -938 -2q-37 0 -44.5 2.5t-7.5 13.5z" />
<glyph unicode="[" horiz-adv-x="1045" d="M228 413q0 244 4 420l8 298q4 123 10.5 130t20.5 7q7 0 23 -2q197 -19 413 -19q148 0 199 12.5t51 51.5q0 8 -2 14l-8 21q0 16 20 16q15 0 27 -21.5t12 -49.5q0 -67 -69 -125t-176 -58q-154 0 -475 95l3 -444l-9 -731q0 -251 6 -436q293 112 456 112q130 0 196.5 -49 t66.5 -114q0 -35 -12 -60.5t-28 -25.5q-18 0 -18 15q0 5 6 19q4 11 4 18q0 32 -27 45t-114 13q-175 0 -372 -27q-123 -16 -163 -16q-46 0 -46 18z" />
<glyph unicode="\" d="M113 1426h87l711 -1463h-88z" />
<glyph unicode="]" horiz-adv-x="1045" d="M39 -474q0 66 69 124t176 58q155 0 475 -95l-2 444l8 732q0 275 -6 435q-293 -112 -455 -112q-122 0 -193 46.5t-71 116.5q0 35 12 60.5t28 25.5q19 0 19 -14q0 -6 -6 -19q-5 -11 -5 -18q0 -25 21 -41q20 -17 121 -17q174 0 371 26q124 17 164 17q45 0 45 -19l7 -873 q0 -243 -4 -419l-8 -299q-4 -123 -10.5 -130t-20.5 -7q-6 0 -23 2q-196 19 -412 19q-149 0 -200 -12.5t-51 -50.5q0 -9 2 -15l8 -20q0 -16 -19 -16q-16 0 -28 21t-12 50z" />
<glyph unicode="^" horiz-adv-x="960" d="M37 667l431 717h30l425 -717h-92l-350 586l-350 -586h-94z" />
<glyph unicode="_" d="M-12 -154h1048v-102h-1048v102z" />
<glyph unicode="`" horiz-adv-x="683" d="M101 1249q0 63 64 63q35 0 62.5 -23t72.5 -86l154 -216q29 -39 29 -48q0 -13 -15 -13q-9 0 -32 18l-237 180q-98 74 -98 125z" />
<glyph unicode="a" horiz-adv-x="896" d="M95 182q0 66 34.5 123t79 82t156.5 63q160 53 192 88t32 91q0 89 -42 138.5t-119 49.5q-63 0 -95 -28q-32 -29 -49 -113q-18 -92 -79 -92q-22 0 -48.5 22t-26.5 65q0 75 83 130.5t228 55.5q115 0 183.5 -32.5t86 -74.5t17.5 -162l-6 -264q0 -153 18.5 -217.5t68.5 -64.5 q10 0 28 3l17 2q23 0 23 -17q0 -39 -197 -39q-57 0 -76.5 26.5t-21.5 110.5q-49 -71 -117 -106.5t-154 -35.5q-101 0 -158.5 54t-57.5 142zM249 200q0 -63 37.5 -107t93.5 -44q58 0 109 35.5t75.5 90.5t24.5 163q0 81 -7 180q-30 -39 -136 -95q-105 -54 -151 -103 q-46 -50 -46 -120z" />
<glyph unicode="b" d="M70 1336q0 16 26 14l177 1q25 -5 40.5 -9.5t15.5 -27.5q0 -10 -2 -45q-7 -126 -7 -524q111 113 256 113q161 0 272.5 -124t111.5 -291q0 -181 -111 -321t-293 -140q-156 0 -261 78q-34 25 -47 25q-25 0 -39 -43q-12 -39 -26 -39q-17 0 -17 27l1 41l13 875q0 236 -2 275 t-19.5 59t-65.5 36q-23 7 -23 20zM307 309q0 -104 17.5 -153t74 -90.5t138.5 -41.5q106 0 181.5 103t75.5 280q0 187 -69.5 293.5t-190.5 106.5q-107 0 -167 -86t-60 -412z" />
<glyph unicode="c" horiz-adv-x="853" d="M66 403q0 183 117.5 320t286.5 137q109 0 209 -53.5t100 -133.5q0 -31 -19 -54.5t-44 -23.5q-56 0 -86 90q-46 138 -161 138q-114 0 -173.5 -98.5t-59.5 -258.5q0 -188 83 -307t200 -119q77 0 149 60q71 59 83 144q5 29 22 29q18 0 18 -18q0 -98 -90.5 -184t-242.5 -86 q-166 0 -279 126t-113 292z" />
<glyph unicode="d" horiz-adv-x="1045" d="M74 396q0 185 114.5 321t281.5 136q84 0 145 -35.5t99 -107.5q6 118 6 222q0 319 -16 354t-75 42q-37 5 -37 19q0 17 47 17l220 5q1 -214 1 -578l-8 -635q0 -105 97 -122q32 -6 32 -21q0 -12 -11.5 -15t-132.5 -3q-62 1 -123 2q-3 61 -3 88q0 34 3 97q-54 -100 -123 -150 t-153 -50q-119 0 -241.5 112t-122.5 302zM244 418q0 -199 72.5 -285t157.5 -86t164.5 90.5t79.5 335.5q0 170 -57.5 254.5t-173.5 84.5q-121 0 -182 -98.5t-61 -295.5z" />
<glyph unicode="e" horiz-adv-x="875" d="M70 401q0 196 126.5 327t270.5 131q135 0 244 -102.5t109 -240.5q0 -21 -6.5 -31t-76.5 -10l-500 -8q-4 -51 -4 -81q0 -142 83.5 -240t206.5 -98q120 0 223 96q30 27 38 27q16 0 17 -26q-38 -70 -130 -118t-205 -48q-166 0 -281 119.5t-115 302.5zM237 519q130 -6 252 -6 l53 3q60 2 92 23.5t32 75.5q0 84 -57.5 146.5t-135.5 62.5q-72 0 -143.5 -71.5t-92.5 -233.5z" />
<glyph unicode="f" horiz-adv-x="576" d="M47 783q0 36 18 47t135 14q0 175 27 279t116 172.5t223 68.5q125 0 180 -44t55 -109q0 -70 -66 -70q-24 0 -40 17t-48 80q-46 90 -129 90q-119 0 -153.5 -118t-34.5 -246q0 -57 4 -120q31 1 50 1q78 0 115.5 -6.5t37.5 -25.5q0 -17 -12 -35t-50 -21.5t-82 -3.5 q-23 0 -59 2q-4 -39 -4 -250q0 -272 2 -334t33.5 -101.5t105.5 -48.5q28 -3 28 -20q0 -14 -22 -14l-168 10q-163 0 -219 -8h-11q-22 0 -22 15q0 18 35 23q46 6 65 21t25.5 42.5t12.5 192.5t6 328q0 65 -1 144q-75 5 -114 6t-39 22z" />
<glyph unicode="g" horiz-adv-x="1109" d="M77 -346q0 156 296 254q-125 20 -176 54.5t-51 96.5q0 64 53.5 112.5t160.5 81.5q-96 28 -154.5 98.5t-58.5 165.5q0 137 104 239.5t264 102.5q156 0 254 -107q103 117 193 117q63 0 97.5 -36t34.5 -79q0 -27 -20 -45t-48 -18q-51 0 -81 60q-18 36 -43 36q-41 0 -107 -70 q45 -72 45 -158q0 -129 -85 -220q-86 -91 -246 -103q-103 -8 -140.5 -17.5t-68.5 -38t-31 -56.5q0 -42 48 -62q47 -20 199 -25q223 -8 298 -19.5t128.5 -70t53.5 -150.5q0 -152 -134 -247t-396 -95q-194 0 -291.5 50t-97.5 149zM205 -324q0 -88 85 -134.5t213 -46.5 q194 0 288 78.5t94 171.5q0 80 -78 120t-235 40q-104 0 -193 -34t-131.5 -81.5t-42.5 -113.5zM306 549q0 -148 64.5 -210.5t136.5 -62.5q67 0 120.5 64t53.5 196q0 136 -53 210.5t-130 74.5q-85 0 -138.5 -72t-53.5 -200z" />
<glyph unicode="h" horiz-adv-x="1067" d="M50 1348q0 8 6.5 9.5t64.5 1.5q98 0 211 7l-3 -498q0 -95 3 -158q121 149 287 149q132 0 202.5 -75t70.5 -267l-6 -265q0 -127 3 -154t28.5 -47t50.5 -21q27 0 27 -12q0 -18 -44 -18h-296q-17 4 -17 17q0 14 23 17q71 9 84 55.5t13 295.5q0 268 -53.5 345.5t-141.5 77.5 q-86 0 -151.5 -65.5t-77.5 -192.5t-12 -310q0 -124 13 -162t74 -50q25 -4 25 -18q0 -16 -24 -16l-202 4q-65 0 -113 -3q-30 0 -30 16q0 14 24 17q48 6 65 27t29 161.5t12 359.5q0 391 -3.5 512.5t-35.5 176t-78 63.5q-28 6 -28 20z" />
<glyph unicode="i" horiz-adv-x="533" d="M66 15q0 18 56 25t71.5 24.5t15.5 99.5l6 414q0 166 -25 196.5t-97 32.5q-24 0 -24 16q0 9 8 14t119 13t154 9l-1 -225l2 -210v-158l-1 -120q0 -72 23.5 -91.5t70.5 -21.5q55 -3 55 -23q0 -16 -21 -16q-8 0 -18 1q-93 12 -173 12q-128 0 -177 -8q-10 -2 -20 -2 q-24 0 -24 18zM147 1255q0 41 25.5 67t66.5 26q38 0 68 -28t30 -61q0 -39 -24.5 -67t-67.5 -28q-38 0 -68 24.5t-30 66.5z" />
<glyph unicode="j" horiz-adv-x="555" d="M-151 -374q0 44 26 70.5t56 26.5q31 0 52.5 -20t21.5 -55q0 -17 -13 -51q-8 -22 -8 -38q0 -26 18 -39.5t53 -13.5q60 0 108 42t59 103t12 355l2 617q0 122 -15.5 155t-79.5 33q-11 0 -23 -1q-43 0 -43 20q0 19 58 20q130 2 242 9q-6 -428 -6 -501q0 -418 -10.5 -555.5 t-101.5 -236t-221 -98.5q-74 0 -130.5 41t-56.5 117zM194 1310q0 33 22 59t62 26q32 0 59 -24.5t27 -61.5q0 -36 -27 -59.5t-59 -23.5t-58 23.5t-26 60.5z" />
<glyph unicode="k" d="M47 1316q0 17 83 22q38 3 81 9q83 13 123 15q3 -38 3 -54l-3 -107l5 -384l1 -397q168 116 250 205.5t82 127.5q0 39 -74 46q-39 4 -39 20q0 12 10.5 15t88.5 3l153 -1q48 0 87 2q40 0 40 -18q0 -14 -23 -18q-70 -12 -119.5 -40t-123.5 -107q-69 -73 -89 -92 q144 -69 218 -385q18 -77 52 -107t126 -33q30 -2 30 -19q0 -19 -50 -19h-242q-37 32 -48.5 65t-21.5 102q-35 240 -192 290q-5 -5 -115 -84q-1 -31 -1 -56q0 -190 23.5 -234.5t81.5 -47.5q31 -1 31 -19q0 -16 -64 -16h-290q-53 0 -53 17q0 16 24 20q51 8 64.5 18t29 41 t15.5 117l-1 155l-11 705q0 119 -23.5 166.5t-93.5 58.5q-25 4 -25 18z" />
<glyph unicode="l" horiz-adv-x="576" d="M34 1307q0 17 32 19q183 12 275 44h17q3 -126 5 -252l-2 -623l4 -302q0 -86 24.5 -124t105.5 -45q32 -3 32 -19q0 -17 -26 -17q-7 0 -17 1q-103 11 -246 11q-87 0 -140 -8q-11 -1 -20 -1q-30 0 -30 18q0 17 27 18q91 1 119.5 52.5t28.5 172.5l-3 570q-1 275 -7.5 328.5 t-41.5 89.5t-98 46q-39 6 -39 21z" />
<glyph unicode="m" horiz-adv-x="1600" d="M47 823q0 11 7 16t90.5 13t147.5 8q16 0 50 -1q12 -38 12 -70q-1 -47 -3 -95q74 83 150 124t154 41q71 0 132 -34t111 -102q71 69 143.5 103t145.5 34q97 0 161.5 -40t80.5 -88.5t16 -176.5l-5 -376q0 -82 16.5 -111.5t67.5 -29.5q34 0 34 -18q0 -19 -55 -19h-307 q-45 0 -45 18q0 16 26 18q82 4 102 37.5t20 360.5q0 153 -11.5 220.5t-54.5 110.5t-106 43q-55 0 -107 -33.5t-101 -101.5q-40 -131 -40 -461q0 -116 18.5 -146.5t81.5 -30.5h17q32 0 32 -17q0 -18 -40 -18h-337q-51 0 -51 19t29 19q61 0 82.5 25.5t29 146.5t7.5 239 q0 213 -41.5 280t-120.5 67q-68 0 -134.5 -54t-89.5 -146t-23 -324q0 -164 16 -200.5t79 -36.5q25 0 30.5 -3t5.5 -16q0 -16 -39 -16h-310q-55 0 -55 19q0 17 20 18q54 2 73.5 20.5t28.5 109t9 294.5t-2.5 247t-29.5 69t-92 27q-26 1 -26 18z" />
<glyph unicode="n" horiz-adv-x="1088" d="M66 15q0 17 48 26q46 9 62 31.5t21.5 149.5t5.5 317q0 177 -24 220t-67 53q-39 9 -39 25q0 17 30 17l81 -1q13 0 135 3q24 -59 29 -199q62 98 137.5 147t164.5 49q68 0 131.5 -25.5t98 -88t34.5 -212.5l-6 -337q0 -93 15.5 -116.5t66.5 -37.5q35 -10 35 -22 q0 -15 -17 -15q-7 0 -14 1q-46 10 -136 10q-81 0 -174 -7q-37 0 -37 17q0 12 20 16q55 12 72 25t24 34.5t11.5 144.5t4.5 200q0 211 -53 281t-132 70q-117 0 -194.5 -126.5t-77.5 -421.5q0 -134 17.5 -170.5t87.5 -44.5q22 -2 22 -19q0 -14 -22 -14l-52 4q-28 2 -185 2 l-80 -2q-44 0 -44 16z" />
<glyph unicode="o" horiz-adv-x="1003" d="M69 418q0 176 127 310t312 134q174 0 299.5 -120t125.5 -300q0 -182 -132 -319.5t-308 -137.5q-174 0 -299 126.5t-125 306.5zM231 424q0 -172 79.5 -286t196.5 -114q107 0 188.5 107t81.5 284q0 158 -78.5 281.5t-203.5 123.5q-116 0 -190 -112.5t-74 -283.5z" />
<glyph unicode="p" d="M7 -478q0 16 20 18q93 10 116.5 42t30 283.5t6.5 314.5l-3 272l1 162q0 126 -17 161t-87 40q-23 2 -23 17q0 9 8.5 14t90.5 6l172 3q5 -43 5 -78q0 -30 -5 -87q99 94 151.5 121.5t117.5 27.5q154 0 262.5 -126.5t108.5 -297.5q0 -185 -124 -302.5t-289 -117.5 q-114 0 -227 67q-17 -123 -17 -271q0 -87 7 -135l3 -39q19 -63 101 -79q28 -6 30 -23l-3 -10l-7 -4q-123 7 -193 7q-177 0 -213 -3q-23 0 -23 17zM314 410q0 -183 9 -234t64.5 -95t145.5 -44q122 0 196 104.5t74 255.5q0 172 -75.5 275.5t-184.5 103.5q-106 0 -167.5 -88 t-61.5 -278z" />
<glyph unicode="q" horiz-adv-x="1045" d="M63 423q0 102 55 204.5t147 167t204 64.5q163 0 311 -101l20 29q13 17 17 27q11 27 23 27q18 0 18 -25l-1 -36l-2 -342q0 -686 14 -771t106 -85q42 0 42 -17q0 -19 -58 -19h-343q-40 0 -40 17q0 18 29 18q69 0 91 33.5t22 125.5q0 244 -4 330q-54 -33 -117.5 -49.5 t-135.5 -16.5q-174 0 -286 131t-112 288zM235 429q0 -175 74.5 -281.5t196.5 -106.5q71 0 127.5 42.5t71 93.5t14.5 168q0 180 -13 275.5t-68.5 149t-136.5 53.5q-126 0 -196 -123.5t-70 -270.5z" />
<glyph unicode="r" horiz-adv-x="811" d="M52 815q0 9 7.5 13.5t91.5 9.5l184 10q7 -54 15 -216q63 112 134.5 168t150.5 56q55 0 95 -39.5t40 -89.5q0 -95 -81 -95q-38 0 -64 53q-32 67 -85 67q-50 0 -103 -56t-71 -122.5t-18 -278.5q0 -194 16 -222.5t82 -36.5q18 -2 18 -14q0 -21 -47 -21h-319q-34 0 -34 17 q0 16 45 18q63 4 78 39t15 258q0 327 -13.5 393t-100.5 70q-36 2 -36 19z" />
<glyph unicode="s" horiz-adv-x="811" d="M110 272q0 37 19 37q11 0 17 -19q39 -114 109.5 -193.5t165.5 -79.5q67 0 119 41.5t52 112.5q0 110 -191 195q-131 59 -175 86t-69 73t-25 100q0 103 78 172.5t189 69.5q82 0 180 -51q16 -8 28 -8q10 0 22 16q12 15 19 15q9 0 14 -7.5t11 -88t6 -132.5q0 -32 -17 -32 q-15 0 -24 29q-8 27 -48 103t-87.5 97t-93.5 21q-72 0 -118 -35t-46 -91q0 -35 19 -63t35.5 -42t190.5 -92q108 -49 142 -75.5t57 -71.5t23 -94q0 -116 -86 -199.5t-204 -83.5q-70 0 -167 45q-53 24 -63 24q-17 0 -30 -21q-16 -28 -30 -28q-12 0 -15 28.5t-4 129.5 q-1 87 -3 112z" />
<glyph unicode="t" horiz-adv-x="704" d="M70 793q0 13 25 21q41 15 138 88t113 206q4 35 22 35t18 -28q0 -9 -1 -19q-3 -39 -3 -90l1 -156l219 3q56 0 58 -13q-1 -46 -15 -58q-52 0 -262 -15q-14 -221 -14 -434q0 -164 39 -214t112 -50q53 0 117 39q23 14 28 14q13 0 13 -14q0 -24 -71 -76t-174 -52 q-102 0 -153 71t-51 212q0 147 18 504q-7 2 -95 7l-60 4q-22 1 -22 15z" />
<glyph unicode="u" horiz-adv-x="1045" d="M78 823q0 17 48 17h184q5 -65 9 -376q2 -194 10 -258.5t50.5 -106.5t97.5 -42q72 0 144.5 67t89.5 143.5t17 351.5q0 128 -16 155t-78 31q-23 1 -23 17q0 11 7 14.5t45 3.5h200q9 -109 9 -244l-8 -376q0 -116 19.5 -146t61.5 -34q26 -4 26 -20q0 -18 -51 -18h-158 q-41 0 -41 27q0 8 1 18q3 30 3 61q0 26 -3 76q-76 -98 -158 -147t-171 -49q-76 0 -127.5 37t-68 89.5t-22.5 261.5t-6 328q0 65 -7 81t-44 18q-40 3 -40 20z" />
<glyph unicode="v" d="M36 827q0 20 29 20l174 -2q123 0 138 1q35 0 35 -19q0 -15 -36 -21q-51 -9 -51 -52q0 -78 242 -578q216 475 216 581q0 46 -56 50q-33 2 -33 18q0 20 25 20l150 -2l90 1q32 0 32 -20q0 -15 -23 -17q-82 -9 -119 -69.5t-100 -221.5q-106 -272 -154 -373q-47 -97 -55 -124 q-12 -34 -29 -34q-12 0 -30 42l-119 258l-124 277q-63 142 -90 182.5t-40 49t-49 14.5q-23 4 -23 19z" />
<glyph unicode="w" horiz-adv-x="1472" d="M51 812q0 22 45 22l227 4l94 -2q29 0 29 -15q0 -20 -39 -26q-72 -12 -72 -49q0 -53 214 -549q172 400 172 470q0 34 -18.5 68.5t-36 46t-52.5 13.5q-24 1 -24 18q0 22 26 22l177 4q128 0 144 -2.5t16 -16.5q0 -13 -33 -24q-60 -21 -60 -58q0 -11 18.5 -65.5t73.5 -184.5 l121 -278q68 171 123 338.5t55 193.5q0 52 -64 58q-37 4 -37 23q0 14 32 16.5t134 2.5q67 0 86 -3t19 -16t-40 -31q-50 -22 -75 -58t-57 -149q-26 -92 -115 -326l-96 -256q-8 -21 -21 -21t-31 49q-13 33 -86 204q-100 229 -146 356l-6 -5q-29 -86 -86 -227l-104 -255 q-46 -114 -53.5 -120t-12.5 -6q-13 0 -30 43q-82 210 -151 373l-114 264q-44 101 -64.5 117t-47.5 18q-34 4 -34 19z" />
<glyph unicode="x" horiz-adv-x="1088" d="M45 838q0 11 13 14.5t67 3.5h318q52 0 52 -18q0 -20 -72 -29q-36 -4 -36 -24q0 -24 178 -273q152 207 152 249q0 45 -70 54q-28 4 -28 21q0 20 66 20h218q46 0 46 -18q0 -21 -32 -21q-81 0 -114.5 -40t-213.5 -297l190 -259q88 -120 132 -148t97 -32q30 -2 30 -19 q0 -13 -12.5 -17.5t-65.5 -4.5h-320q-61 0 -61 20q0 18 32 20q77 7 77 45q0 18 -20 45q-8 12 -42 64q-47 73 -131 182q-169 -252 -169 -287q0 -48 92 -51q34 -1 34 -20q0 -18 -58 -18h-269q-55 0 -55 20q0 17 30 19q41 4 98 27.5t120 117.5l151 226l-253 339q-40 57 -139 67 q-32 3 -32 22z" />
<glyph unicode="y" d="M18 -406q0 38 30.5 67t62.5 29q82 0 89 -82q4 -55 49 -55q72 0 160.5 151t88.5 236q0 67 -68.5 236t-152.5 365.5t-114.5 231t-66.5 39.5q-33 4 -33 20q0 19 24 19q10 0 23 -2q58 -7 133 -7q160 0 195 7q21 4 29 4q25 0 25 -19q0 -16 -44 -27q-79 -21 -79 -76 q0 -47 228 -584q109 296 140 402.5t31 170.5q0 83 -104 92q-29 3 -29 20q0 16 23 16q8 0 54 -3q18 -1 63 -1q133 0 178 4q20 2 28 2q25 0 25 -17q0 -15 -27 -21q-80 -18 -126.5 -116.5t-168.5 -457.5q-119 -351 -191.5 -506.5t-151 -215t-154.5 -59.5q-78 0 -123.5 45 t-45.5 92z" />
<glyph unicode="z" horiz-adv-x="917" d="M101 25q0 33 217 350q97 142 120.5 186t141.5 245q-78 3 -107 3q-124 0 -189.5 -33t-125.5 -129q-29 -46 -41 -46q-16 0 -16 18q0 6 8 29q16 47 54 193q45 7 310 7l129 1l128 -3q39 0 39 -19q0 -13 -99 -168l-253 -397q-99 -149 -129 -217q38 -1 76 -3l66 1l74 -1 q63 0 96 12.5t59.5 39t125.5 154.5q13 17 24 17q17 0 17 -18q0 -6 -57 -241l-267 -2l-233 5l-127 -5q-41 0 -41 21z" />
<glyph unicode="{" horiz-adv-x="981" d="M283 379v40q105 13 166.5 76t61.5 139q0 48 -25 153q-21 88 -21 156q0 142 108 256t268 132v-35q-226 -56 -226 -237q0 -52 24 -157q21 -91 21 -156q0 -111 -79 -203.5t-216 -141.5q137 -49 216 -145.5t79 -202.5q0 -66 -21 -156q-24 -106 -24 -158q0 -181 226 -237v-35 q-160 19 -268 132t-108 257q0 67 21 155q25 105 25 153q0 78 -62 139.5t-166 75.5z" />
<glyph unicode="|" d="M468 -545v1909h89v-1909h-89z" />
<glyph unicode="}" horiz-adv-x="981" d="M177 -498q226 56 226 237q0 52 -24 158q-22 90 -22 155q0 112 79.5 204t216.5 141q-137 50 -216.5 146t-79.5 203q0 65 22 156q24 105 24 157q0 181 -226 237v35q160 -18 268 -131.5t108 -256.5q0 -68 -21 -156q-25 -105 -25 -153q0 -76 62 -139t166 -76v-40 q-105 -13 -166.5 -76t-61.5 -139q0 -48 25 -153q21 -88 21 -156q0 -142 -108.5 -255.5t-267.5 -132.5v35z" />
<glyph unicode="~" horiz-adv-x="1365" d="M150 400q4 136 75.5 204.5t156.5 68.5q91 0 380 -123q154 -66 223 -66q86 0 132 53.5t55 133.5h43q-3 -124 -72 -198.5t-171 -74.5q-50 0 -108 18.5t-264 102.5q-156 64 -222 64q-148 0 -185 -183h-43z" />
<glyph unicode="&#xa1;" horiz-adv-x="448" d="M126 751q0 41 29 69.5t69 28.5q41 0 69.5 -28.5t28.5 -69.5q0 -40 -28.5 -69t-69.5 -29q-40 0 -69 29t-29 69zM129 -356q0 46 23 232q20 152 37 351.5t17 223.5q0 51 2 56.5t19 5.5q27 0 27 -17l-1 -37q0 -47 17 -273.5t46 -473.5q7 -52 7 -86q0 -54 -27 -89.5t-66 -35.5 q-101 0 -101 143z" />
<glyph unicode="&#xa2;" horiz-adv-x="853" d="M69 395q0 179 113 321t291 142q53 0 112 -15l101 298l36 -13l-101 -298q157 -53 157 -161q0 -74 -66 -74q-51 0 -90 105q-15 38 -26 57l-225 -657q72 -62 147 -62q80 0 152 59q71 59 86 150q5 28 20 28q18 0 18 -22q0 -96 -86 -183.5t-246 -87.5q-61 0 -123 22l-104 -300 l-36 12l103 301q-103 50 -168 154t-65 224zM238 468q0 -201 103 -340l225 662q-50 31 -103 31q-110 0 -167.5 -98t-57.5 -255z" />
<glyph unicode="&#xa3;" horiz-adv-x="1707" d="M48 -74q0 54 58.5 103.5t166.5 49.5q147 0 326 -64q59 139 91 322l-381 -27q-17 -1 -22 -1q-16 0 -16 33q0 14 6.5 17t31.5 5l391 30q71 401 115 532.5t131.5 241t182 151t183.5 41.5q145 0 250.5 -105t105.5 -229q0 -135 -85 -232t-192 -97q-39 0 -88.5 19t-49.5 37 t17 18q6 0 32 -12q55 -24 87 -24q69 0 122.5 63t53.5 207q0 155 -74 236.5t-187 81.5q-85 0 -152.5 -37.5t-106.5 -107t-72.5 -241t-58.5 -352.5q-21 -149 -27 -177l410 31q21 2 31 2q15 0 15 -28q0 -16 -6.5 -21t-30.5 -7l-431 -34q-75 -239 -185 -365q261 -86 460 -86 q126 0 231.5 48t113.5 119q3 33 19 33t16 -31q0 -153 -99.5 -234t-242.5 -81q-74 0 -218.5 50t-326.5 127q-185 -168 -364 -168q-92 0 -161.5 46t-69.5 117zM141 -89q0 -55 34.5 -82.5t103.5 -27.5q195 0 295 162q-163 78 -276 78q-67 0 -112 -34.5t-45 -95.5z" />
<glyph unicode="&#xa4;" horiz-adv-x="1387" d="M213 129l126 124q-101 127 -101 282q0 144 100 282l-125 124l62 63l125 -125q130 100 282 100q144 0 283 -100l125 125l61 -63l-125 -125q100 -128 100 -281q0 -73 -19.5 -136.5t-80.5 -145.5l125 -124l-61 -62l-126 124q-129 -101 -282 -101q-154 0 -281 101l-126 -124z M327 535q0 -147 104 -251t251 -104q146 0 250.5 104t104.5 251t-104 251t-251 104q-146 0 -250.5 -104.5t-104.5 -250.5z" />
<glyph unicode="&#xa5;" horiz-adv-x="1451" d="M34 1281q0 11 9.5 14.5t56.5 3.5h437q45 0 54 -3t9 -16q0 -16 -25 -18q-126 -10 -126 -76q0 -45 110 -201h440q102 149 102 187q0 39 -39 64.5t-87 25.5q-34 0 -34 18q0 19 57 19h377q52 0 52 -21q0 -17 -23 -17q-84 0 -150.5 -50.5t-190.5 -225.5h267v-58h-311 q-150 -202 -168.5 -234t-23.5 -83h503v-58h-507q-4 -56 -4 -106q0 -288 20 -344t149 -68q32 -3 32 -20q0 -20 -35 -20l-269 6q-97 0 -159 -4q-50 -4 -64 -4q-38 0 -38 20q0 16 28 17q97 4 128.5 73.5t31.5 196.5q0 33 -7 134.5t-14 118.5h-508v58h492q-32 58 -209 317h-283 v58h243q-126 186 -179 229t-108 47q-36 3 -36 20zM600 927l175 -243q46 44 184 243h-359z" />
<glyph unicode="&#xa6;" d="M468 175h89v-720h-89v720zM468 643v721h89v-721h-89z" />
<glyph unicode="&#xa7;" horiz-adv-x="960" d="M91 604q0 92 56 142.5t168 59.5q-86 155 -86 280q0 123 73.5 202.5t189.5 79.5q95 0 164 -53.5t69 -134.5q0 -59 -36.5 -92t-73.5 -33q-31 0 -53.5 22.5t-22.5 52.5q0 35 35 63q43 35 43 56q0 32 -38.5 53t-80.5 21q-73 0 -123 -51t-50 -137q0 -100 60.5 -202.5 t244.5 -319.5q150 -177 193.5 -254.5t43.5 -152.5q0 -76 -41 -126.5t-176 -80.5q98 -158 98 -270q0 -119 -75 -196.5t-197 -77.5q-101 0 -161 57t-60 127q0 43 34.5 83.5t79.5 40.5q29 0 55 -21t26 -53q0 -28 -38 -60q-35 -29 -35 -57q0 -27 24 -51.5t81 -24.5q88 0 130 48 t42 109q0 88 -68.5 202t-269.5 334q-132 145 -178.5 230.5t-46.5 184.5zM170 656q0 -44 33.5 -109t162 -221t258.5 -279q78 3 116.5 29.5t38.5 76.5q0 93 -135 243t-218 255.5t-155 105.5q-36 0 -68.5 -27t-32.5 -74z" />
<glyph unicode="&#xa8;" horiz-adv-x="683" d="M60 1059q0 40 27.5 66t64.5 26t64.5 -27t27.5 -65t-27.5 -65t-64.5 -27q-38 0 -65 26.5t-27 65.5zM439 1059q0 38 27 65t64 27t64.5 -26t27.5 -66q0 -39 -27 -65.5t-65 -26.5q-37 0 -64 26.5t-27 65.5z" />
<glyph unicode="&#xa9;" horiz-adv-x="1557" d="M69 622q0 294 208.5 501.5t500.5 207.5q179 0 347 -90.5t265.5 -260t97.5 -358.5q0 -293 -208.5 -501.5t-501.5 -208.5q-292 0 -500.5 208.5t-208.5 501.5zM131 622q0 -269 189.5 -458.5t457.5 -189.5q267 0 457.5 190.5t190.5 457.5q0 172 -89 327t-242.5 238t-316.5 83 t-316 -83t-242 -238t-89 -327zM320 616q0 191 140.5 326.5t358.5 135.5q71 0 184 -37q25 -8 37 -8q33 0 49 44h40l20 -280h-39q-72 237 -303 237q-146 0 -233.5 -103.5t-87.5 -285.5q0 -214 92.5 -313.5t238.5 -99.5q195 0 312 161l37 -18q-139 -203 -383 -203 q-206 0 -334.5 132t-128.5 312z" />
<glyph unicode="&#xaa;" horiz-adv-x="619" d="M72 926q0 61 39 96.5t144 68.5q99 31 116 50t17 49q0 53 -22.5 79t-68.5 26q-36 0 -52 -14q-17 -15 -28 -66q-13 -58 -63 -58q-23 0 -41.5 16.5t-18.5 41.5q0 45 56 80.5t155 35.5q72 0 118 -18t62 -43t16 -86l-4 -176q0 -156 44 -156q5 0 22 1q33 0 33 -17 q0 -29 -135 -29q-72 0 -76 60q-32 -31 -72.5 -47t-90.5 -16q-69 0 -109.5 33.5t-40.5 88.5zM195 938q0 -35 20 -59.5t52 -24.5q39 0 80 33.5t41 137.5q0 38 -3 77q-28 -18 -73 -40q-117 -56 -117 -124z" />
<glyph unicode="&#xab;" horiz-adv-x="1045" d="M66 419l378 357q15 12 21 18q18 16 29 16q18 0 18 -7q0 -6 -12 -23l-239 -361q253 -376 253 -383q0 -5 -14 -5q-9 0 -20 1q-25 19 -414 387zM533 419l379 357q15 12 20 18q18 16 29 16q18 0 18 -7q0 -6 -12 -23l-239 -361q253 -376 253 -383q0 -5 -14 -5q-9 0 -20 1 q-24 19 -414 387z" />
<glyph unicode="&#xac;" horiz-adv-x="1365" d="M146 735v88h1074v-576h-87v488h-987z" />
<glyph unicode="&#xad;" horiz-adv-x="704" d="M34 389v56q0 31 5.5 35.5t45.5 4.5h553q25 0 28.5 -4.5t3.5 -35.5v-56q0 -29 -5 -33t-41 -4h-539q-40 0 -45.5 5t-5.5 32z" />
<glyph unicode="&#xae;" horiz-adv-x="1557" d="M69 622q0 294 208.5 501.5t500.5 207.5q179 0 347 -90.5t265.5 -260t97.5 -358.5q0 -293 -208.5 -501.5t-501.5 -208.5q-292 0 -500.5 208.5t-208.5 501.5zM131 622q0 -269 189.5 -458.5t457.5 -189.5q267 0 457.5 190.5t190.5 457.5q0 172 -89 327t-242.5 238t-316.5 83 t-316 -83t-242 -238t-89 -327zM374 192v34q49 0 71 13t27.5 33t5.5 92v523q0 71 -4 89t-23 31.5t-65 14.5v36h386q136 0 216.5 -62.5t80.5 -161.5q0 -82 -55.5 -137.5t-166.5 -84.5l209 -298q35 -49 60 -67.5t61 -20.5v-34h-184l-294 406h-76v-310q5 -25 23.5 -43.5 t94.5 -18.5v-34h-367zM623 641h30q126 0 190.5 49t64.5 132q0 82 -56.5 136.5t-144.5 54.5q-41 0 -84 -15v-357z" />
<glyph unicode="&#xaf;" horiz-adv-x="512" d="M-279 122v96h558v-96h-558z" />
<glyph unicode="&#xb0;" horiz-adv-x="811" d="M98 1078q0 132 91.5 220t215.5 88q125 0 216.5 -88t91.5 -220q0 -127 -90 -217t-218 -90q-126 0 -216.5 90.5t-90.5 216.5zM182 1079q0 -92 65 -157.5t158 -65.5t158 65.5t65 157.5q0 93 -66 158t-157 65q-90 0 -156.5 -63.5t-66.5 -159.5z" />
<glyph unicode="&#xb1;" horiz-adv-x="1365" d="M145 0v88h1075v-88h-1075zM145 674v88h492v495h88v-495h495v-88h-495v-491h-88v491h-492z" />
<glyph unicode="&#xb2;" horiz-adv-x="704" d="M80 714q0 8 95 80q158 121 228 213.5t70 186.5q0 61 -30.5 96.5t-80.5 35.5q-71 0 -131.5 -56t-60.5 -145q0 -43 12 -65t35 -22q25 0 67 38q27 25 34 25q16 0 16 -15q0 -20 -43.5 -55t-89.5 -35q-47 0 -82 36.5t-35 85.5q0 100 95 173.5t220 73.5q85 0 144 -44t59 -118 q0 -58 -39 -127.5t-154 -152.5l-162 -118h164q101 0 127 11.5t48 48.5q18 30 29 30q15 0 15 -15q0 -6 -8 -26l-63 -150h-430q-49 0 -49 10z" />
<glyph unicode="&#xb3;" horiz-adv-x="704" d="M84 830q0 25 21.5 46t53.5 21q51 0 51 -47q0 -9 -6 -29q-5 -20 -5 -33q0 -26 28 -42q27 -16 61 -16q79 0 135 83t56 158q0 36 -15 54t-45 18q-52 0 -112 -45q-12 -9 -20 -9q-15 0 -15 19q0 11 18 21q44 24 96.5 71t65.5 69t13 57q0 51 -24 76.5t-72 25.5 q-59 0 -106.5 -49t-47.5 -105q0 -23 7 -35t20 -12q14 0 38 21q16 15 21 15q17 0 17 -17q0 -11 -26.5 -37.5t-61.5 -26.5q-41 0 -66 27.5t-25 72.5q0 79 81.5 133t187.5 54q66 0 119 -38.5t53 -97.5q0 -78 -133 -154q77 -9 115.5 -46.5t38.5 -103.5q0 -93 -89 -165t-216 -72 q-98 0 -155 42.5t-57 95.5z" />
<glyph unicode="&#xb4;" horiz-adv-x="683" d="M200 939q0 9 28 48l154 216q45 63 72.5 86t62.5 23q64 0 64 -63q0 -51 -98 -125l-236 -180q-24 -18 -33 -18q-14 0 -14 13z" />
<glyph unicode="&#xb5;" d="M56 -332q0 45 29 164q34 137 34 291l-1 67v726h164v-533q0 -170 32.5 -229t110.5 -59q59 0 117.5 33.5t117.5 100.5v687h165v-654q0 -115 15.5 -148.5t52.5 -33.5q63 0 81 124h42q-17 -232 -198 -232q-70 0 -109.5 47.5t-48.5 142.5q-77 -95 -156 -142.5t-160 -47.5 q-48 0 -86.5 21.5t-66.5 63.5q-1 -30 -1 -44q0 -79 34 -241q13 -61 13 -103t-25.5 -76.5t-68.5 -34.5t-65 33t-22 77z" />
<glyph unicode="&#xb6;" horiz-adv-x="1472" d="M186 743q0 213 122 354t307.5 172.5t652.5 31.5v-34q-110 -31 -137.5 -66t-27.5 -133v-1542h-77v1714q-39 7 -70 7q-70 0 -140 -23v-1698h-74v730l-65 -3q-234 0 -362.5 139t-128.5 351z" />
<glyph unicode="&#xb8;" horiz-adv-x="683" d="M158 -370q0 15 37 20q104 13 144 37t40 70q0 30 -26 49t-61 22l92 178h45q-17 -43 -37 -87q137 -25 137 -131q0 -92 -97 -135.5t-244 -43.5q-30 0 -30 21z" />
<glyph unicode="&#xb9;" horiz-adv-x="704" d="M185 1299q0 16 29 17q114 3 173 40q14 8 19 8q18 0 18 -45v-442q0 -90 13 -113.5t66 -28.5q22 -2 22 -16q0 -17 -42 -17h-246l-28 -1q-14 4 -14 16q0 17 21 18q65 4 81 29.5t16 112.5v283q0 71 -23 93t-84 28q-21 2 -21 18z" />
<glyph unicode="&#xba;" horiz-adv-x="640" d="M31 1062q0 107 84.5 188t208.5 81q117 0 200.5 -73.5t83.5 -180.5q0 -109 -87.5 -192.5t-205.5 -83.5q-121 0 -202.5 78t-81.5 183zM159 1067q0 -96 46.5 -163t117.5 -67q64 0 112.5 62t48.5 162q0 91 -47.5 162t-121.5 71q-68 0 -112 -65t-44 -162z" />
<glyph unicode="&#xbb;" horiz-adv-x="1045" d="M65 36q0 7 253 383l-251 384q0 7 18 7q12 0 29 -16q6 -6 21 -18q189 -179 378 -357q-335 -325 -414 -387q-11 -1 -20 -1q-14 0 -14 5zM532 36q0 7 253 383q-11 18 -118 178l-133 206q0 7 18 7q12 0 29 -16q6 -6 21 -18q189 -179 378 -357q-335 -325 -414 -387 q-11 -1 -20 -1q-14 0 -14 5z" />
<glyph unicode="&#xbc;" horiz-adv-x="1472" d="M188 1299q0 16 29 17q114 3 173 40q14 8 19 8q18 0 18 -45v-442q0 -90 13 -113.5t66 -28.5q22 -2 22 -16q0 -17 -42 -17h-246l-28 -1q-14 4 -14 16q0 17 21 18q65 4 81 29.5t16 112.5v283q0 71 -23 93t-84 28q-21 2 -21 18zM279 -20l848 1382h65l-847 -1382h-66zM806 226 v30q77 87 198 211l156 161q35 37 55 37q12 0 15 -5t3 -29v-361q83 0 110 19t36 87q3 24 18 24q16 0 16 -21q0 -7 -1 -19q-5 -46 -5 -107q0 -53 4 -91l1 -13q0 -24 -16 -24q-14 0 -21 37q-7 41 -26 56.5t-70 15.5q-8 0 -46 -1v-93q0 -72 19 -88t61 -20q22 -1 22 -16 q0 -16 -40 -16h-208q-69 0 -77 1.5t-8 13.5q0 18 40 19q45 2 59.5 28.5t17.5 131.5q0 13 2 39l-74 1q-87 0 -241 -8zM866 270h255q5 196 6 267q-63 -56 -261 -267z" />
<glyph unicode="&#xbd;" horiz-adv-x="1472" d="M188 1299q0 16 29 17q114 3 173 40q14 8 19 8q18 0 18 -45v-442q0 -90 13 -113.5t66 -28.5q22 -2 22 -16q0 -17 -42 -17h-246l-28 -1q-14 4 -14 16q0 17 21 18q65 4 81 29.5t16 112.5v283q0 71 -23 93t-84 28q-21 2 -21 18zM279 -20l848 1382h65l-847 -1382h-66zM844 10 q0 9 95 81q188 143 243 234.5t55 164.5q0 62 -30.5 97.5t-80.5 35.5q-73 0 -132.5 -58t-59.5 -144q0 -43 12 -64.5t35 -21.5q25 0 66 37q28 25 35 25q16 0 16 -15q0 -18 -43 -54t-90 -36t-82.5 37t-35.5 85q0 101 93.5 174t222.5 73q85 0 144 -44t59 -118q0 -39 -19.5 -87 t-54 -87.5t-114.5 -99.5l-167 -124h164q101 0 127 11.5t48 48.5q18 31 29 31q15 0 15 -16q0 -6 -8 -26l-63 -150h-430q-49 0 -49 10z" />
<glyph unicode="&#xbe;" horiz-adv-x="1472" d="M87 830q0 25 21.5 46t53.5 21q51 0 51 -47q0 -9 -6 -29q-5 -20 -5 -33q0 -26 28 -42q27 -16 61 -16q79 0 135 83t56 158q0 36 -15 54t-45 18q-52 0 -112 -45q-12 -9 -20 -9q-15 0 -15 19q0 11 18 21q44 24 96.5 71t65.5 69t13 57q0 51 -24 76.5t-72 25.5 q-59 0 -106.5 -49t-47.5 -105q0 -23 7 -35t20 -12q14 0 38 21q16 15 21 15q17 0 17 -17q0 -11 -26.5 -37.5t-61.5 -26.5q-41 0 -66 27.5t-25 72.5q0 79 81.5 133t187.5 54q66 0 119 -38.5t53 -97.5q0 -78 -133 -154q77 -9 115.5 -46.5t38.5 -103.5q0 -93 -89 -165t-216 -72 q-98 0 -155 42.5t-57 95.5zM280 -20l847 1382h65l-847 -1382h-65zM807 226v30q77 87 197 211l156 161q35 37 55 37q12 0 15 -5t3 -29v-361q84 0 110.5 19t35.5 87q3 24 18 24q16 0 16 -21q0 -7 -1 -19q-5 -46 -5 -107q0 -53 5 -91l1 -13q0 -24 -17 -24q-14 0 -21 37 q-7 41 -25.5 56.5t-69.5 15.5q-9 0 -47 -1v-93q0 -72 19 -88t62 -20q22 -1 22 -16q0 -16 -41 -16h-207q-70 0 -78 1.5t-8 13.5q0 18 41 19q44 2 58.5 28.5t17.5 131.5q0 13 2 39l-74 1q-86 0 -240 -8zM866 270h255q6 196 6 267q-62 -56 -261 -267z" />
<glyph unicode="&#xbf;" horiz-adv-x="875" d="M123 -125q0 155 97 256t231 101q87 0 177 -57q16 217 16 298q0 23 4.5 29t22.5 6q21 0 21 -29l1 -47q0 -245 -7 -352q-111 95 -183 95q-86 0 -158 -101t-72 -244q0 -139 72.5 -220.5t162.5 -81.5q38 0 65.5 16t27.5 45q0 5 -3 28q-1 11 -1 21q0 48 25 72t58 24 q87 0 87 -92q0 -72 -75 -111t-175 -39q-159 0 -276.5 115.5t-117.5 267.5zM553 750q0 41 29.5 70t69.5 29q41 0 70 -29t29 -70t-29 -70t-70 -29t-70 29t-29 70z" />
<glyph unicode="&#xc0;" horiz-adv-x="1408" d="M6 14q0 16 28 20q115 15 176 156t190 507q118 333 258 638h46q112 -229 309 -783q127 -355 174 -435.5t151 -89.5q33 -3 33 -22q0 -14 -17 -14l-14 1q-92 8 -234 8q-218 0 -280 -7q-31 0 -31 18q0 13 23 16q85 8 117.5 29t32.5 66q0 43 -61 215l-59 172q-52 0 -465 -6 q-104 -277 -104 -349q0 -61 51.5 -90.5t101.5 -32.5q37 -3 37 -23q0 -8 -12 -15q-160 7 -193 7q-168 0 -226 -4q-32 0 -32 18zM401 565q103 5 148 5l281 -5q-37 104 -104 276q-82 205 -108 276q-93 -190 -217 -552zM430 1689q0 63 64 63q35 0 62.5 -23t72.5 -86l154 -216 q29 -39 29 -48q0 -13 -15 -13q-9 0 -32 18l-237 180q-98 74 -98 125z" />
<glyph unicode="&#xc1;" horiz-adv-x="1408" d="M6 14q0 16 28 20q115 15 176 156t190 507q118 333 258 638h46q112 -229 309 -783q127 -355 174 -435.5t151 -89.5q33 -3 33 -22q0 -14 -17 -14l-14 1q-92 8 -234 8q-218 0 -280 -7q-31 0 -31 18q0 13 23 16q85 8 117.5 29t32.5 66q0 43 -61 215l-59 172q-52 0 -465 -6 q-104 -277 -104 -349q0 -61 51.5 -90.5t101.5 -32.5q37 -3 37 -23q0 -8 -12 -15q-160 7 -193 7q-168 0 -226 -4q-32 0 -32 18zM401 565q103 5 148 5l281 -5q-37 104 -104 276q-82 205 -108 276q-93 -190 -217 -552zM598 1379q0 9 28 48l154 216q45 63 72.5 86t62.5 23 q64 0 64 -63q0 -51 -98 -125l-236 -180q-24 -18 -33 -18q-14 0 -14 13z" />
<glyph unicode="&#xc2;" horiz-adv-x="1408" d="M6 14q0 16 28 20q115 15 176 156t190 507q118 333 258 638h46q112 -229 309 -783q127 -355 174 -435.5t151 -89.5q33 -3 33 -22q0 -14 -17 -14l-14 1q-92 8 -234 8q-218 0 -280 -7q-31 0 -31 18q0 13 23 16q85 8 117.5 29t32.5 66q0 43 -61 215l-59 172q-52 0 -465 -6 q-104 -277 -104 -349q0 -61 51.5 -90.5t101.5 -32.5q37 -3 37 -23q0 -8 -12 -15q-160 7 -193 7q-168 0 -226 -4q-32 0 -32 18zM401 565q103 5 148 5l281 -5q-37 104 -104 276q-82 205 -108 276q-93 -190 -217 -552zM447 1386q0 5 13 30l192 347h110l190 -347q12 -22 12 -31 q0 -16 -15 -16q-10 0 -22 15q-5 6 -13 14l-207 214l-204 -214q-27 -28 -36 -28q-20 0 -20 16z" />
<glyph unicode="&#xc3;" horiz-adv-x="1408" d="M6 14q0 16 28 20q115 15 176 156t190 507q118 333 258 638h46q112 -229 309 -783q127 -355 174 -435.5t151 -89.5q33 -3 33 -22q0 -14 -17 -14l-14 1q-92 8 -234 8q-218 0 -280 -7q-31 0 -31 18q0 13 23 16q85 8 117.5 29t32.5 66q0 43 -61 215l-59 172q-52 0 -465 -6 q-104 -277 -104 -349q0 -61 51.5 -90.5t101.5 -32.5q37 -3 37 -23q0 -8 -12 -15q-160 7 -193 7q-168 0 -226 -4q-32 0 -32 18zM401 565q103 5 148 5l281 -5q-37 104 -104 276q-82 205 -108 276q-93 -190 -217 -552zM434 1457q0 73 44.5 140.5t122.5 67.5q46 0 119 -46 q75 -46 121 -46q77 0 88 76q2 15 33 15q14 0 14 -19q0 -81 -46 -143.5t-118 -62.5q-59 0 -125 46q-77 52 -116 52q-34 0 -60 -21q-27 -21 -31 -52q-4 -24 -25 -24t-21 17z" />
<glyph unicode="&#xc4;" horiz-adv-x="1408" d="M6 14q0 16 28 20q115 15 176 156t190 507q118 333 258 638h46q112 -229 309 -783q127 -355 174 -435.5t151 -89.5q33 -3 33 -22q0 -14 -17 -14l-14 1q-92 8 -234 8q-218 0 -280 -7q-31 0 -31 18q0 13 23 16q85 8 117.5 29t32.5 66q0 43 -61 215l-59 172q-52 0 -465 -6 q-104 -277 -104 -349q0 -61 51.5 -90.5t101.5 -32.5q37 -3 37 -23q0 -8 -12 -15q-160 7 -193 7q-168 0 -226 -4q-32 0 -32 18zM401 565q103 5 148 5l281 -5q-37 104 -104 276q-82 205 -108 276q-93 -190 -217 -552zM424 1530q0 40 27.5 66t64.5 26t64.5 -27t27.5 -65 t-27.5 -65t-64.5 -27q-38 0 -65 26.5t-27 65.5zM803 1530q0 38 27 65t64 27t64.5 -26t27.5 -66q0 -39 -27 -65.5t-65 -26.5q-37 0 -64 26.5t-27 65.5z" />
<glyph unicode="&#xc5;" horiz-adv-x="1408" d="M6 14q0 16 28 20q115 15 176 156t190 507q115 324 232 582q-58 18 -94.5 67t-36.5 109q0 75 54 129t129 54q76 0 130 -54t54 -129q0 -61 -37.5 -111t-98.5 -66q106 -231 281 -726q127 -355 174 -435.5t151 -89.5q33 -3 33 -22q0 -14 -17 -14l-14 1q-92 8 -234 8 q-218 0 -280 -7q-31 0 -31 18q0 13 23 16q85 8 117.5 29t32.5 66q0 43 -61 215l-59 172q-52 0 -465 -6q-104 -277 -104 -349q0 -61 51.5 -90.5t101.5 -32.5q37 -3 37 -23q0 -8 -12 -15q-160 7 -193 7q-168 0 -226 -4q-32 0 -32 18zM401 565q103 5 148 5l281 -5 q-37 104 -104 276q-82 205 -108 276q-93 -190 -217 -552zM564 1455q0 -50 35.5 -85t84.5 -35q50 0 85 35t35 85q0 51 -35.5 85.5t-84.5 34.5t-84.5 -35.5t-35.5 -84.5z" />
<glyph unicode="&#xc6;" horiz-adv-x="2091" d="M18 12q0 16 29 18q53 5 114.5 50.5t149 190.5t190.5 341l186 360q83 163 83 210q0 85 -174 89q-48 1 -48 20q0 18 41 18h1286q85 -284 85 -305q0 -20 -19 -20q-11 0 -21 16q-115 173 -222.5 219.5t-295.5 46.5q-121 0 -189 -17q-13 -157 -13 -544q81 -2 88 -2 q142 0 202 46.5t89 143.5q10 31 25 31t15 -27q0 -12 -2 -28q-6 -65 -6 -197q0 -142 6 -205l2 -29q0 -30 -16 -30t-23 28q-23 93 -56 136.5t-94.5 64t-229.5 20.5q-5 -143 -5 -220q0 -241 20 -297.5t87 -82t179 -25.5q184 0 300.5 57t202.5 218q13 25 25 25q18 0 18 -21 q0 -7 -3 -17q-26 -107 -67 -301l-211 1q-295 0 -449 2l-300 3q-147 1 -154.5 7.5t-7.5 12.5q0 18 37 19q103 3 130.5 85t27.5 394q0 27 -2 134h-439q-165 -280 -197 -375.5t-32 -138.5q0 -56 33 -80t106 -25q31 -1 31 -18q0 -21 -31 -21q-10 0 -20 2q-20 2 -65 2l-179 4 q-34 0 -117 -5l-63 -3q-37 0 -37 19zM614 712l334 -3q42 0 80 3q0 359 -17.5 448.5t-70.5 89.5q-22 0 -46 -22t-109.5 -179.5t-170.5 -336.5z" />
<glyph unicode="&#xc7;" horiz-adv-x="1323" d="M99 645q0 310 194.5 501t451.5 191q85 0 177 -27.5t191 -83.5q55 49 63 66q10 24 29 24q20 0 22 -36l23 -349q0 -30 -2.5 -36.5t-14.5 -6.5q-16 0 -34 43q-66 159 -184 261q-119 101 -258 101q-122 0 -224 -78.5t-158.5 -224t-56.5 -312.5q0 -290 158 -464.5t348 -174.5 q131 0 241 83t166 192q15 30 31 30q22 0 22 -24q0 -28 -71 -121t-181.5 -153.5t-241.5 -70.5l-22 -50q70 -6 115 -47.5t45 -97.5q0 -72 -74 -138t-255 -66q-72 0 -72 23q0 19 31 19q121 0 169 30q48 29 48 84q0 35 -30.5 63t-83.5 28q58 92 87 150q-263 0 -456 185t-193 487 z" />
<glyph unicode="&#xc8;" horiz-adv-x="1344" d="M60 16q0 20 33 20q111 0 146 59t35 287l-1 205l3 192q0 58 -6.5 219.5t-12 184.5t-31 45.5t-112.5 45.5q-26 7 -26 22q0 18 35 18l204 -11q108 -5 531 -5q278 0 284 -1q29 -112 57 -314q-5 -8 -11 -8q-7 0 -15 8q-69 111 -132 169t-126.5 82.5t-218.5 24.5 q-146 0 -231 -17q-8 -10 -8 -37q0 -7 -2 -25q-10 -80 -10 -434q0 -15 2 -42q76 -3 104 -3q126 0 182.5 37.5t98.5 161.5q7 21 20 21q19 0 19 -29l-4 -40q-8 -79 -8 -163q0 -136 5 -245q0 -34 -19 -34q-14 0 -19 24q-21 118 -88 170t-291 52q-3 -73 -3 -236q0 -211 15 -268 t72 -90.5t193 -33.5q389 0 502 268q14 33 29 33q16 0 16 -22q0 -12 -5 -26q-6 -19 -29 -142q-5 -26 -38 -156l-419 1q-90 0 -264.5 7.5t-309 8t-140.5 5.5t-6 11zM431 1689q0 63 64 63q35 0 62.5 -23t72.5 -86l154 -216q29 -39 29 -48q0 -13 -15 -13q-9 0 -32 18l-237 180 q-98 74 -98 125z" />
<glyph unicode="&#xc9;" horiz-adv-x="1344" d="M60 16q0 20 33 20q111 0 146 59t35 287l-1 205l3 192q0 58 -6.5 219.5t-12 184.5t-31 45.5t-112.5 45.5q-26 7 -26 22q0 18 35 18l204 -11q108 -5 531 -5q278 0 284 -1q29 -112 57 -314q-5 -8 -11 -8q-7 0 -15 8q-69 111 -132 169t-126.5 82.5t-218.5 24.5 q-146 0 -231 -17q-8 -10 -8 -37q0 -7 -2 -25q-10 -80 -10 -434q0 -15 2 -42q76 -3 104 -3q126 0 182.5 37.5t98.5 161.5q7 21 20 21q19 0 19 -29l-4 -40q-8 -79 -8 -163q0 -136 5 -245q0 -34 -19 -34q-14 0 -19 24q-21 118 -88 170t-291 52q-3 -73 -3 -236q0 -211 15 -268 t72 -90.5t193 -33.5q389 0 502 268q14 33 29 33q16 0 16 -22q0 -12 -5 -26q-6 -19 -29 -142q-5 -26 -38 -156l-419 1q-90 0 -264.5 7.5t-309 8t-140.5 5.5t-6 11zM569 1379q0 9 28 48l154 216q45 63 72.5 86t62.5 23q64 0 64 -63q0 -51 -98 -125l-236 -180q-24 -18 -33 -18 q-14 0 -14 13z" />
<glyph unicode="&#xca;" horiz-adv-x="1344" d="M60 16q0 20 33 20q111 0 146 59t35 287l-1 205l3 192q0 58 -6.5 219.5t-12 184.5t-31 45.5t-112.5 45.5q-26 7 -26 22q0 18 35 18l204 -11q108 -5 531 -5q278 0 284 -1q29 -112 57 -314q-5 -8 -11 -8q-7 0 -15 8q-69 111 -132 169t-126.5 82.5t-218.5 24.5 q-146 0 -231 -17q-8 -10 -8 -37q0 -7 -2 -25q-10 -80 -10 -434q0 -15 2 -42q76 -3 104 -3q126 0 182.5 37.5t98.5 161.5q7 21 20 21q19 0 19 -29l-4 -40q-8 -79 -8 -163q0 -136 5 -245q0 -34 -19 -34q-14 0 -19 24q-21 118 -88 170t-291 52q-3 -73 -3 -236q0 -211 15 -268 t72 -90.5t193 -33.5q389 0 502 268q14 33 29 33q16 0 16 -22q0 -12 -5 -26q-6 -19 -29 -142q-5 -26 -38 -156l-419 1q-90 0 -264.5 7.5t-309 8t-140.5 5.5t-6 11zM417 1386q0 5 13 30l192 347h110l190 -347q12 -22 12 -31q0 -16 -15 -16q-10 0 -22 15q-5 6 -13 14l-207 214 l-204 -214q-27 -28 -36 -28q-20 0 -20 16z" />
<glyph unicode="&#xcb;" horiz-adv-x="1344" d="M60 16q0 20 33 20q111 0 146 59t35 287l-1 205l3 192q0 58 -6.5 219.5t-12 184.5t-31 45.5t-112.5 45.5q-26 7 -26 22q0 18 35 18l204 -11q108 -5 531 -5q278 0 284 -1q29 -112 57 -314q-5 -8 -11 -8q-7 0 -15 8q-69 111 -132 169t-126.5 82.5t-218.5 24.5 q-146 0 -231 -17q-8 -10 -8 -37q0 -7 -2 -25q-10 -80 -10 -434q0 -15 2 -42q76 -3 104 -3q126 0 182.5 37.5t98.5 161.5q7 21 20 21q19 0 19 -29l-4 -40q-8 -79 -8 -163q0 -136 5 -245q0 -34 -19 -34q-14 0 -19 24q-21 118 -88 170t-291 52q-3 -73 -3 -236q0 -211 15 -268 t72 -90.5t193 -33.5q389 0 502 268q14 33 29 33q16 0 16 -22q0 -12 -5 -26q-6 -19 -29 -142q-5 -26 -38 -156l-419 1q-90 0 -264.5 7.5t-309 8t-140.5 5.5t-6 11zM395 1530q0 40 27.5 66t64.5 26t64.5 -27t27.5 -65t-27.5 -65t-64.5 -27q-38 0 -65 26.5t-27 65.5zM774 1530 q0 38 27 65t64 27t64.5 -26t27.5 -66q0 -39 -27 -65.5t-65 -26.5q-37 0 -64 26.5t-27 65.5z" />
<glyph unicode="&#xcc;" horiz-adv-x="768" d="M118 1301q0 18 21 18l182 -4l279 4q50 0 50 -20q0 -15 -27 -19q-111 -14 -138.5 -80t-27.5 -488q0 -155 8 -349t18 -232t38 -62t104 -34q25 -3 25 -19q0 -18 -23 -18l-248 2l-211 -3q-35 0 -35 20q0 21 28 21q93 2 109 62t16 383q0 312 -5.5 505t-32.5 236t-102 54 q-28 5 -28 23zM101 1689q0 63 64 63q35 0 62.5 -23t72.5 -86l154 -216q29 -39 29 -48q0 -13 -15 -13q-9 0 -32 18l-237 180q-98 74 -98 125z" />
<glyph unicode="&#xcd;" horiz-adv-x="768" d="M118 1301q0 18 21 18l182 -4l279 4q50 0 50 -20q0 -15 -27 -19q-111 -14 -138.5 -80t-27.5 -488q0 -155 8 -349t18 -232t38 -62t104 -34q25 -3 25 -19q0 -18 -23 -18l-248 2l-211 -3q-35 0 -35 20q0 21 28 21q93 2 109 62t16 383q0 312 -5.5 505t-32.5 236t-102 54 q-28 5 -28 23zM277 1379q0 9 28 48l154 216q45 63 72.5 86t62.5 23q64 0 64 -63q0 -51 -98 -125l-236 -180q-24 -18 -33 -18q-14 0 -14 13z" />
<glyph unicode="&#xce;" horiz-adv-x="768" d="M98 1301q0 18 21 18l182 -4l279 4q50 0 50 -20q0 -15 -27 -19q-111 -14 -138.5 -80t-27.5 -488q0 -155 8 -349t18 -232t38 -62t104 -34q25 -3 25 -19q0 -18 -23 -18l-248 2l-211 -3q-35 0 -35 20q0 21 28 21q93 2 109 62t16 383q0 312 -5.5 505t-32.5 236t-102 54 q-28 5 -28 23zM83 1386q0 5 13 30l192 347h110l190 -347q12 -22 12 -31q0 -16 -15 -16q-10 0 -22 15q-5 6 -13 14l-207 214l-204 -214q-27 -28 -36 -28q-20 0 -20 16z" />
<glyph unicode="&#xcf;" horiz-adv-x="768" d="M118 1301q0 18 21 18l182 -4l279 4q50 0 50 -20q0 -15 -27 -19q-111 -14 -138.5 -80t-27.5 -488q0 -155 8 -349t18 -232t38 -62t104 -34q25 -3 25 -19q0 -18 -23 -18l-248 2l-211 -3q-35 0 -35 20q0 21 28 21q93 2 109 62t16 383q0 312 -5.5 505t-32.5 236t-102 54 q-28 5 -28 23zM60 1530q0 40 27.5 66t64.5 26t64.5 -27t27.5 -65t-27.5 -65t-64.5 -27q-38 0 -65 26.5t-27 65.5zM439 1530q0 38 27 65t64 27t64.5 -26t27.5 -66q0 -39 -27 -65.5t-65 -26.5q-37 0 -64 26.5t-27 65.5z" />
<glyph unicode="&#xd0;" horiz-adv-x="1557" d="M27 9q0 15 18.5 18.5t67.5 9.5q106 14 128 99t31 490h-167v57h168l9 294q0 81 -13 164t-39 107t-84 33q-42 6 -42 23q0 21 21 21q16 0 125.5 -8.5t173.5 -8.5l272 4q368 0 570.5 -187t202.5 -482q0 -216 -97 -358.5t-232 -223t-391 -80.5q-54 0 -137 6q-148 12 -166 12 q-328 0 -386 -7q-33 0 -33 17zM437 342q0 -132 17.5 -188.5t75 -93t184.5 -36.5q182 0 295 86t176.5 229t63.5 304q0 192 -84.5 340.5t-204.5 216t-307 67.5q-136 0 -158.5 -9t-22.5 -53q-13 -261 -25 -522h388v-57h-390q-8 -264 -8 -284z" />
<glyph unicode="&#xd1;" horiz-adv-x="1536" d="M29 1285q0 19 44 19l294 -2q60 -81 208 -251l320 -371l308 -356q10 181 10 470q0 217 -9 290.5t-66.5 123.5t-143.5 50q-40 0 -40 17q0 10 8.5 14.5t134.5 9t212 4.5l135 -1h22q31 0 31 -18q0 -16 -27 -19q-101 -11 -145.5 -52.5t-53 -119.5t-8.5 -525l-10 -528 q0 -40 -20 -40q-5 0 -13.5 4.5t-89.5 101t-199.5 231.5t-186.5 219q-149 181 -188 223q-145 154 -171 198q-17 30 -31 30q-11 0 -11 -39l2 -155q0 -295 16 -471t33.5 -206.5t61 -61.5t92.5 -31q66 0 66 -24q0 -18 -37 -18l-481 1q-34 0 -34 17q0 20 33 20q123 0 164 54.5 t41 231.5l-8 351q0 311 -17 366.5t-76.5 135t-135.5 89.5q-34 4 -34 18zM498 1457q0 73 44.5 140.5t122.5 67.5q46 0 119 -46q75 -46 121 -46q77 0 88 76q2 15 33 15q14 0 14 -19q0 -81 -46 -143.5t-118 -62.5q-59 0 -125 46q-77 52 -116 52q-34 0 -60 -21q-27 -21 -31 -52 q-4 -24 -25 -24t-21 17z" />
<glyph unicode="&#xd2;" horiz-adv-x="1493" d="M89 663q0 135 82 296.5t239.5 266.5t355.5 105q277 0 457.5 -198t180.5 -452q0 -270 -200 -484.5t-481 -214.5q-269 0 -451.5 188t-182.5 493zM312 695q0 -163 50 -334.5t157 -249t229 -77.5q197 0 315.5 191.5t118.5 443.5q0 244 -121 428.5t-316 184.5 q-147 0 -245 -98.5t-143 -235.5t-45 -253zM472 1689q0 63 64 63q35 0 62.5 -23t72.5 -86l154 -216q29 -39 29 -48q0 -13 -15 -13q-9 0 -32 18l-237 180q-98 74 -98 125z" />
<glyph unicode="&#xd3;" horiz-adv-x="1493" d="M89 663q0 135 82 296.5t239.5 266.5t355.5 105q277 0 457.5 -198t180.5 -452q0 -270 -200 -484.5t-481 -214.5q-269 0 -451.5 188t-182.5 493zM312 695q0 -163 50 -334.5t157 -249t229 -77.5q197 0 315.5 191.5t118.5 443.5q0 244 -121 428.5t-316 184.5 q-147 0 -245 -98.5t-143 -235.5t-45 -253zM640 1379q0 9 28 48l154 216q45 63 72.5 86t62.5 23q64 0 64 -63q0 -51 -98 -125l-236 -180q-24 -18 -33 -18q-14 0 -14 13z" />
<glyph unicode="&#xd4;" horiz-adv-x="1493" d="M89 663q0 135 82 296.5t239.5 266.5t355.5 105q277 0 457.5 -198t180.5 -452q0 -270 -200 -484.5t-481 -214.5q-269 0 -451.5 188t-182.5 493zM312 695q0 -163 50 -334.5t157 -249t229 -77.5q197 0 315.5 191.5t118.5 443.5q0 244 -121 428.5t-316 184.5 q-147 0 -245 -98.5t-143 -235.5t-45 -253zM488 1386q0 5 13 30l192 347h110l190 -347q12 -22 12 -31q0 -16 -15 -16q-10 0 -22 15q-5 6 -13 14l-207 214l-204 -214q-27 -28 -36 -28q-20 0 -20 16z" />
<glyph unicode="&#xd5;" horiz-adv-x="1493" d="M89 663q0 135 82 296.5t239.5 266.5t355.5 105q277 0 457.5 -198t180.5 -452q0 -270 -200 -484.5t-481 -214.5q-269 0 -451.5 188t-182.5 493zM312 695q0 -163 50 -334.5t157 -249t229 -77.5q197 0 315.5 191.5t118.5 443.5q0 244 -121 428.5t-316 184.5 q-147 0 -245 -98.5t-143 -235.5t-45 -253zM476 1457q0 73 44.5 140.5t122.5 67.5q46 0 119 -46q75 -46 121 -46q77 0 88 76q2 15 33 15q14 0 14 -19q0 -81 -46 -143.5t-118 -62.5q-59 0 -125 46q-77 52 -116 52q-34 0 -60 -21q-27 -21 -31 -52q-4 -24 -25 -24t-21 17z" />
<glyph unicode="&#xd6;" horiz-adv-x="1493" d="M89 663q0 135 82 296.5t239.5 266.5t355.5 105q277 0 457.5 -198t180.5 -452q0 -270 -200 -484.5t-481 -214.5q-269 0 -451.5 188t-182.5 493zM312 695q0 -163 50 -334.5t157 -249t229 -77.5q197 0 315.5 191.5t118.5 443.5q0 244 -121 428.5t-316 184.5 q-147 0 -245 -98.5t-143 -235.5t-45 -253zM466 1530q0 40 27.5 66t64.5 26t64.5 -27t27.5 -65t-27.5 -65t-64.5 -27q-38 0 -65 26.5t-27 65.5zM845 1530q0 38 27 65t64 27t64.5 -26t27.5 -66q0 -39 -27 -65.5t-65 -26.5q-37 0 -64 26.5t-27 65.5z" />
<glyph unicode="&#xd7;" horiz-adv-x="1365" d="M196 959l61 62l426 -427l426 427l61 -62l-425 -427l421 -421l-62 -62l-421 421l-424 -421l-62 62l423 421z" />
<glyph unicode="&#xd8;" horiz-adv-x="1493" d="M89 635q0 266 195 481.5t482 215.5q233 0 407 -148l139 161l39 -32l-141 -163q89 -89 142 -215.5t53 -253.5q0 -172 -93.5 -340t-251.5 -263t-336 -95q-230 0 -402 141l-143 -166l-37 34l143 166q-91 87 -143.5 216.5t-52.5 260.5zM314 673q0 -200 78 -393l686 793 q-126 209 -331 209q-197 0 -315 -185t-118 -424zM416 232q55 -98 146 -148t188 -50q108 0 206 69t162.5 231t64.5 335q0 195 -79 357z" />
<glyph unicode="&#xd9;" horiz-adv-x="1557" d="M64 1288q0 21 42 21h501q43 0 43 -18t-32 -21q-71 -7 -105 -39t-51.5 -113t-17.5 -347q0 -319 18.5 -442t116 -195.5t265.5 -72.5q176 0 268 67t119.5 199t27.5 573q0 227 -47 297.5t-139 70.5q-37 0 -37 21q0 20 49 20h400q27 0 27 -20q0 -14 -22 -17 q-76 -11 -111.5 -48t-46.5 -134t-11 -285q0 -235 -17.5 -399t-75.5 -244.5t-174.5 -130t-286.5 -49.5q-174 0 -296.5 55.5t-166 147t-43.5 273.5l4 277q0 369 -31.5 451.5t-135.5 84.5q-34 0 -34 17zM504 1689q0 63 64 63q35 0 62.5 -23t72.5 -86l154 -216q29 -39 29 -48 q0 -13 -15 -13q-9 0 -32 18l-237 180q-98 74 -98 125z" />
<glyph unicode="&#xda;" horiz-adv-x="1557" d="M64 1288q0 21 42 21h501q43 0 43 -18t-32 -21q-71 -7 -105 -39t-51.5 -113t-17.5 -347q0 -319 18.5 -442t116 -195.5t265.5 -72.5q176 0 268 67t119.5 199t27.5 573q0 227 -47 297.5t-139 70.5q-37 0 -37 21q0 20 49 20h400q27 0 27 -20q0 -14 -22 -17 q-76 -11 -111.5 -48t-46.5 -134t-11 -285q0 -235 -17.5 -399t-75.5 -244.5t-174.5 -130t-286.5 -49.5q-174 0 -296.5 55.5t-166 147t-43.5 273.5l4 277q0 369 -31.5 451.5t-135.5 84.5q-34 0 -34 17zM715 1379q0 9 28 48l154 216q45 63 72.5 86t62.5 23q64 0 64 -63 q0 -51 -98 -125l-236 -180q-24 -18 -33 -18q-14 0 -14 13z" />
<glyph unicode="&#xdb;" horiz-adv-x="1557" d="M64 1288q0 21 42 21h501q43 0 43 -18t-32 -21q-71 -7 -105 -39t-51.5 -113t-17.5 -347q0 -319 18.5 -442t116 -195.5t265.5 -72.5q176 0 268 67t119.5 199t27.5 573q0 227 -47 297.5t-139 70.5q-37 0 -37 21q0 20 49 20h400q27 0 27 -20q0 -14 -22 -17 q-76 -11 -111.5 -48t-46.5 -134t-11 -285q0 -235 -17.5 -399t-75.5 -244.5t-174.5 -130t-286.5 -49.5q-174 0 -296.5 55.5t-166 147t-43.5 273.5l4 277q0 369 -31.5 451.5t-135.5 84.5q-34 0 -34 17zM521 1386q0 5 13 30l192 347h110l190 -347q12 -22 12 -31q0 -16 -15 -16 q-10 0 -22 15q-5 6 -13 14l-207 214l-204 -214q-27 -28 -36 -28q-20 0 -20 16z" />
<glyph unicode="&#xdc;" horiz-adv-x="1557" d="M64 1288q0 21 42 21h501q43 0 43 -18t-32 -21q-71 -7 -105 -39t-51.5 -113t-17.5 -347q0 -319 18.5 -442t116 -195.5t265.5 -72.5q176 0 268 67t119.5 199t27.5 573q0 227 -47 297.5t-139 70.5q-37 0 -37 21q0 20 49 20h400q27 0 27 -20q0 -14 -22 -17 q-76 -11 -111.5 -48t-46.5 -134t-11 -285q0 -235 -17.5 -399t-75.5 -244.5t-174.5 -130t-286.5 -49.5q-174 0 -296.5 55.5t-166 147t-43.5 273.5l4 277q0 369 -31.5 451.5t-135.5 84.5q-34 0 -34 17zM534 1530q0 40 27.5 66t64.5 26t64.5 -27t27.5 -65t-27.5 -65t-64.5 -27 q-38 0 -65 26.5t-27 65.5zM913 1530q0 38 27 65t64 27t64.5 -26t27.5 -66q0 -39 -27 -65.5t-65 -26.5q-37 0 -64 26.5t-27 65.5z" />
<glyph unicode="&#xdd;" horiz-adv-x="1451" d="M34 1281q0 11 9.5 14.5t56.5 3.5h437q45 0 54 -3t9 -16q0 -16 -25 -18q-126 -10 -126 -76q0 -34 46 -107t280 -395q56 62 170.5 224t135 201.5t20.5 62.5q0 41 -41.5 65.5t-84.5 24.5q-34 0 -34 18q0 19 57 19h377q52 0 52 -21q0 -17 -23 -17q-59 0 -113.5 -27 t-132.5 -121l-174 -235q-137 -184 -148 -216q-16 -47 -16 -249q0 -268 22.5 -318t145.5 -61q32 -3 32 -20q0 -20 -35 -20l-269 6q-97 0 -159 -4q-50 -4 -64 -4q-38 0 -38 20q0 16 28 17q96 4 128 72t32 201q0 146 -18 236q-4 23 -86 163.5t-200.5 311t-169.5 207.5t-99 41 q-36 3 -36 20zM679 1379q0 9 28 48l154 216q45 63 72.5 86t62.5 23q64 0 64 -63q0 -51 -98 -125l-236 -180q-24 -18 -33 -18q-14 0 -14 13z" />
<glyph unicode="&#xde;" horiz-adv-x="1259" d="M94 19q0 12 34 17q76 9 106.5 56t30.5 193v702q0 152 -10 194.5t-43 66.5t-87 26q-30 1 -30 22q0 17 30 17h460q35 0 35 -18t-24 -20q-91 -6 -127 -41t-36 -134v-54q38 2 70.5 2.5t59.5 0.5q356 0 477 -83t121 -254q0 -177 -130.5 -265t-421.5 -88h-176v-74 q0 -128 29 -181t110 -64q50 -7 50 -22q0 -19 -29 -19q-7 0 -20 1q-46 3 -222 3l-209 -5q-48 0 -48 21zM433 403q112 -6 159 -6q201 0 290 89.5t89 235.5q0 82 -32 144t-107 102t-242 40q-69 0 -108.5 -8.5t-48.5 -25.5v-571z" />
<glyph unicode="&#xdf;" d="M24 23q0 14 31 17q119 12 119 135l-4 238q0 482 10.5 625t98.5 236t254 93q155 0 246.5 -85.5t91.5 -199.5q0 -98 -62 -165.5t-186 -104.5q181 -29 259.5 -140t78.5 -262q0 -169 -101 -288t-248 -119q-72 0 -112.5 35t-40.5 78q0 33 22 52t51 19q60 0 74 -77 q7 -44 15 -56q8 -13 33 -13q77 0 115 76t38 227q0 146 -30 255t-91 149.5t-174 45.5q-32 1 -32 21q0 14 43 18q112 10 159 70q46 60 46 173q0 118 -54 186t-152 68q-74 0 -123 -40.5t-64 -103.5t-18 -325t-3 -482q0 -237 17.5 -287.5t75.5 -51.5q34 -1 34 -19q0 -17 -28 -17 l-182 2l-178 -1q-29 0 -29 18z" />
<glyph unicode="&#xe0;" horiz-adv-x="896" d="M95 182q0 66 34.5 123t79 82t156.5 63q160 53 192 88t32 91q0 89 -42 138.5t-119 49.5q-63 0 -95 -28q-32 -29 -49 -113q-18 -92 -79 -92q-22 0 -48.5 22t-26.5 65q0 75 83 130.5t228 55.5q115 0 183.5 -32.5t86 -74.5t17.5 -162l-6 -264q0 -153 18.5 -217.5t68.5 -64.5 q10 0 28 3l17 2q23 0 23 -17q0 -39 -197 -39q-57 0 -76.5 26.5t-21.5 110.5q-49 -71 -117 -106.5t-154 -35.5q-101 0 -158.5 54t-57.5 142zM249 200q0 -63 37.5 -107t93.5 -44q58 0 109 35.5t75.5 90.5t24.5 163q0 81 -7 180q-30 -39 -136 -95q-105 -54 -151 -103 q-46 -50 -46 -120zM238 1249q0 63 64 63q35 0 62.5 -23t72.5 -86l154 -216q29 -39 29 -48q0 -13 -15 -13q-9 0 -32 18l-237 180q-98 74 -98 125z" />
<glyph unicode="&#xe1;" horiz-adv-x="896" d="M95 182q0 66 34.5 123t79 82t156.5 63q160 53 192 88t32 91q0 89 -42 138.5t-119 49.5q-63 0 -95 -28q-32 -29 -49 -113q-18 -92 -79 -92q-22 0 -48.5 22t-26.5 65q0 75 83 130.5t228 55.5q115 0 183.5 -32.5t86 -74.5t17.5 -162l-6 -264q0 -153 18.5 -217.5t68.5 -64.5 q10 0 28 3l17 2q23 0 23 -17q0 -39 -197 -39q-57 0 -76.5 26.5t-21.5 110.5q-49 -71 -117 -106.5t-154 -35.5q-101 0 -158.5 54t-57.5 142zM249 200q0 -63 37.5 -107t93.5 -44q58 0 109 35.5t75.5 90.5t24.5 163q0 81 -7 180q-30 -39 -136 -95q-105 -54 -151 -103 q-46 -50 -46 -120zM307 939q0 9 28 48l154 216q45 63 72.5 86t62.5 23q64 0 64 -63q0 -51 -98 -125l-236 -180q-24 -18 -33 -18q-14 0 -14 13z" />
<glyph unicode="&#xe2;" horiz-adv-x="896" d="M95 182q0 66 34.5 123t79 82t156.5 63q160 53 192 88t32 91q0 89 -42 138.5t-119 49.5q-63 0 -95 -28q-32 -29 -49 -113q-18 -92 -79 -92q-22 0 -48.5 22t-26.5 65q0 75 83 130.5t228 55.5q115 0 183.5 -32.5t86 -74.5t17.5 -162l-6 -264q0 -153 18.5 -217.5t68.5 -64.5 q10 0 28 3l17 2q23 0 23 -17q0 -39 -197 -39q-57 0 -76.5 26.5t-21.5 110.5q-49 -71 -117 -106.5t-154 -35.5q-101 0 -158.5 54t-57.5 142zM249 200q0 -63 37.5 -107t93.5 -44q58 0 109 35.5t75.5 90.5t24.5 163q0 81 -7 180q-30 -39 -136 -95q-105 -54 -151 -103 q-46 -50 -46 -120zM184 958q0 5 13 30l192 347h110l190 -347q12 -22 12 -31q0 -16 -15 -16q-10 0 -22 15q-5 6 -13 14l-207 214l-204 -214q-27 -28 -36 -28q-20 0 -20 16z" />
<glyph unicode="&#xe3;" horiz-adv-x="896" d="M95 182q0 66 34.5 123t79 82t156.5 63q160 53 192 88t32 91q0 89 -42 138.5t-119 49.5q-63 0 -95 -28q-32 -29 -49 -113q-18 -92 -79 -92q-22 0 -48.5 22t-26.5 65q0 75 83 130.5t228 55.5q115 0 183.5 -32.5t86 -74.5t17.5 -162l-6 -264q0 -153 18.5 -217.5t68.5 -64.5 q10 0 28 3l17 2q23 0 23 -17q0 -39 -197 -39q-57 0 -76.5 26.5t-21.5 110.5q-49 -71 -117 -106.5t-154 -35.5q-101 0 -158.5 54t-57.5 142zM249 200q0 -63 37.5 -107t93.5 -44q58 0 109 35.5t75.5 90.5t24.5 163q0 81 -7 180q-30 -39 -136 -95q-105 -54 -151 -103 q-46 -50 -46 -120zM177 957q0 73 44.5 140.5t122.5 67.5q46 0 119 -46q75 -46 121 -46q77 0 88 76q2 15 33 15q14 0 14 -19q0 -81 -46 -143.5t-118 -62.5q-59 0 -125 46q-77 52 -116 52q-34 0 -60 -21q-27 -21 -31 -52q-4 -24 -25 -24t-21 17z" />
<glyph unicode="&#xe4;" horiz-adv-x="896" d="M95 182q0 66 34.5 123t79 82t156.5 63q160 53 192 88t32 91q0 89 -42 138.5t-119 49.5q-63 0 -95 -28q-32 -29 -49 -113q-18 -92 -79 -92q-22 0 -48.5 22t-26.5 65q0 75 83 130.5t228 55.5q115 0 183.5 -32.5t86 -74.5t17.5 -162l-6 -264q0 -153 18.5 -217.5t68.5 -64.5 q10 0 28 3l17 2q23 0 23 -17q0 -39 -197 -39q-57 0 -76.5 26.5t-21.5 110.5q-49 -71 -117 -106.5t-154 -35.5q-101 0 -158.5 54t-57.5 142zM249 200q0 -63 37.5 -107t93.5 -44q58 0 109 35.5t75.5 90.5t24.5 163q0 81 -7 180q-30 -39 -136 -95q-105 -54 -151 -103 q-46 -50 -46 -120zM161 1059q0 40 27.5 66t64.5 26t64.5 -27t27.5 -65t-27.5 -65t-64.5 -27q-38 0 -65 26.5t-27 65.5zM540 1059q0 38 27 65t64 27t64.5 -26t27.5 -66q0 -39 -27 -65.5t-65 -26.5q-37 0 -64 26.5t-27 65.5z" />
<glyph unicode="&#xe5;" horiz-adv-x="896" d="M95 182q0 66 34.5 123t79 82t156.5 63q160 53 192 88t32 91q0 89 -42 138.5t-119 49.5q-63 0 -95 -28q-32 -29 -49 -113q-18 -92 -79 -92q-22 0 -48.5 22t-26.5 65q0 75 83 130.5t228 55.5q115 0 183.5 -32.5t86 -74.5t17.5 -162l-6 -264q0 -153 18.5 -217.5t68.5 -64.5 q10 0 28 3l17 2q23 0 23 -17q0 -39 -197 -39q-57 0 -76.5 26.5t-21.5 110.5q-49 -71 -117 -106.5t-154 -35.5q-101 0 -158.5 54t-57.5 142zM249 200q0 -63 37.5 -107t93.5 -44q58 0 109 35.5t75.5 90.5t24.5 163q0 81 -7 180q-30 -39 -136 -95q-105 -54 -151 -103 q-46 -50 -46 -120zM281 1122q0 69 48 115.5t113 46.5q66 0 114 -46.5t48 -115.5q0 -66 -47.5 -113.5t-114.5 -47.5t-114 47.5t-47 113.5zM344 1122q0 -41 29 -69.5t69 -28.5q41 0 70 29t29 69q0 41 -29 70t-70 29q-40 0 -69 -29t-29 -70z" />
<glyph unicode="&#xe6;" horiz-adv-x="1365" d="M73 170q0 100 88 172t402 191q0 149 -30 212.5t-107 63.5q-69 0 -109 -28q-41 -29 -66 -92q-21 -53 -40.5 -72.5t-52.5 -19.5q-65 0 -65 57q0 45 38.5 83t148 75t162.5 37q177 0 259 -137q117 134 262 134q95 0 174 -54.5t117 -147.5t38 -140q0 -17 -40.5 -22t-313.5 -22 q-161 -9 -224 -16q-1 -35 -1 -53q0 -176 83 -267t180 -91q65 0 139.5 34.5t124.5 89.5q25 28 38 28q17 0 17 -18q0 -26 -105 -107t-259 -81q-115 0 -203 45.5t-150 135.5q-93 -89 -176 -133.5t-156 -44.5q-78 0 -125.5 51t-47.5 137zM210 236q0 -68 41.5 -116t104.5 -48 q44 0 85 26t122 103q-2 47 -2 58l2 224q-214 -75 -283.5 -128.5t-69.5 -118.5zM714 488q206 11 284.5 20.5t99.5 25t21 48.5q0 105 -45 163.5t-126 58.5q-57 0 -111.5 -32.5t-88 -97.5t-34.5 -186z" />
<glyph unicode="&#xe7;" horiz-adv-x="853" d="M66 403q0 183 116.5 320t287.5 137q109 0 209 -53.5t100 -133.5q0 -31 -19 -54.5t-44 -23.5q-56 0 -86 90q-46 138 -161 138q-114 0 -173.5 -98.5t-59.5 -258.5q0 -188 83 -307t200 -119q80 0 150.5 61.5t81.5 142.5q5 29 22 29q18 0 18 -18q0 -90 -78.5 -173.5 t-219.5 -95.5q-10 -27 -29 -67q138 -25 138 -131q0 -92 -97 -135.5t-245 -43.5q-30 0 -30 21q0 15 38 20q103 13 143 37t40 70q0 63 -86 71l81 157q-149 0 -264.5 122t-115.5 296z" />
<glyph unicode="&#xe8;" horiz-adv-x="875" d="M70 401q0 196 126.5 327t270.5 131q135 0 244 -102.5t109 -240.5q0 -21 -6.5 -31t-76.5 -10l-500 -8q-4 -51 -4 -81q0 -142 83.5 -240t206.5 -98q120 0 223 96q30 27 38 27q16 0 17 -26q-38 -70 -130 -118t-205 -48q-166 0 -281 119.5t-115 302.5zM237 519q130 -6 252 -6 l53 3q60 2 92 23.5t32 75.5q0 84 -57.5 146.5t-135.5 62.5q-72 0 -143.5 -71.5t-92.5 -233.5zM270 1249q0 63 64 63q35 0 62.5 -23t72.5 -86l154 -216q29 -39 29 -48q0 -13 -15 -13q-9 0 -32 18l-237 180q-98 74 -98 125z" />
<glyph unicode="&#xe9;" horiz-adv-x="875" d="M70 401q0 196 126.5 327t270.5 131q135 0 244 -102.5t109 -240.5q0 -21 -6.5 -31t-76.5 -10l-500 -8q-4 -51 -4 -81q0 -142 83.5 -240t206.5 -98q120 0 223 96q30 27 38 27q16 0 17 -26q-38 -70 -130 -118t-205 -48q-166 0 -281 119.5t-115 302.5zM237 519q130 -6 252 -6 l53 3q60 2 92 23.5t32 75.5q0 84 -57.5 146.5t-135.5 62.5q-72 0 -143.5 -71.5t-92.5 -233.5zM296 939q0 9 28 48l154 216q45 63 72.5 86t62.5 23q64 0 64 -63q0 -51 -98 -125l-236 -180q-24 -18 -33 -18q-14 0 -14 13z" />
<glyph unicode="&#xea;" horiz-adv-x="875" d="M70 401q0 196 126.5 327t270.5 131q135 0 244 -102.5t109 -240.5q0 -21 -6.5 -31t-76.5 -10l-500 -8q-4 -51 -4 -81q0 -142 83.5 -240t206.5 -98q120 0 223 96q30 27 38 27q16 0 17 -26q-38 -70 -130 -118t-205 -48q-166 0 -281 119.5t-115 302.5zM237 519q130 -6 252 -6 l53 3q60 2 92 23.5t32 75.5q0 84 -57.5 146.5t-135.5 62.5q-72 0 -143.5 -71.5t-92.5 -233.5zM179 958q0 5 13 30l192 347h110l190 -347q12 -22 12 -31q0 -16 -15 -16q-10 0 -22 15q-5 6 -13 14l-207 214l-204 -214q-27 -28 -36 -28q-20 0 -20 16z" />
<glyph unicode="&#xeb;" horiz-adv-x="875" d="M70 401q0 196 126.5 327t270.5 131q135 0 244 -102.5t109 -240.5q0 -21 -6.5 -31t-76.5 -10l-500 -8q-4 -51 -4 -81q0 -142 83.5 -240t206.5 -98q120 0 223 96q30 27 38 27q16 0 17 -26q-38 -70 -130 -118t-205 -48q-166 0 -281 119.5t-115 302.5zM237 519q130 -6 252 -6 l53 3q60 2 92 23.5t32 75.5q0 84 -57.5 146.5t-135.5 62.5q-72 0 -143.5 -71.5t-92.5 -233.5zM156 1059q0 40 27.5 66t64.5 26t64.5 -27t27.5 -65t-27.5 -65t-64.5 -27q-38 0 -65 26.5t-27 65.5zM535 1059q0 38 27 65t64 27t64.5 -26t27.5 -66q0 -39 -27 -65.5t-65 -26.5 q-37 0 -64 26.5t-27 65.5z" />
<glyph unicode="&#xec;" horiz-adv-x="533" d="M66 15q0 18 56 25t71.5 24.5t15.5 99.5l6 414q0 166 -25 196.5t-97 32.5q-24 0 -24 16q0 9 8 14t119 13t154 9l-1 -225l2 -210v-158l-1 -120q0 -72 23.5 -91.5t70.5 -21.5q55 -3 55 -23q0 -16 -21 -16q-8 0 -18 1q-93 12 -173 12q-128 0 -177 -8q-10 -2 -20 -2 q-24 0 -24 18zM39 1249q0 63 64 63q35 0 62.5 -23t72.5 -86l154 -216q29 -39 29 -48q0 -13 -15 -13q-9 0 -32 18l-237 180q-98 74 -98 125z" />
<glyph unicode="&#xed;" horiz-adv-x="533" d="M66 15q0 18 56 25t71.5 24.5t15.5 99.5l6 414q0 166 -25 196.5t-97 32.5q-24 0 -24 16q0 9 8 14t119 13t154 9l-1 -225l2 -210v-158l-1 -120q0 -72 23.5 -91.5t70.5 -21.5q55 -3 55 -23q0 -16 -21 -16q-8 0 -18 1q-93 12 -173 12q-128 0 -177 -8q-10 -2 -20 -2 q-24 0 -24 18zM137 939q0 9 28 48l154 216q45 63 72.5 86t62.5 23q64 0 64 -63q0 -51 -98 -125l-236 -180q-24 -18 -33 -18q-14 0 -14 13z" />
<glyph unicode="&#xee;" horiz-adv-x="533" d="M66 15q0 18 56 25t71.5 24.5t15.5 99.5l6 414q0 166 -25 196.5t-97 32.5q-24 0 -24 16q0 9 8 14t119 13t154 9l-1 -225l2 -210v-158l-1 -120q0 -72 23.5 -91.5t70.5 -21.5q55 -3 55 -23q0 -16 -21 -16q-8 0 -18 1q-93 12 -173 12q-128 0 -177 -8q-10 -2 -20 -2 q-24 0 -24 18zM21 958q0 5 13 30l192 347h110l190 -347q12 -22 12 -31q0 -16 -15 -16q-10 0 -22 15q-5 6 -13 14l-207 214l-204 -214q-27 -28 -36 -28q-20 0 -20 16z" />
<glyph unicode="&#xef;" horiz-adv-x="533" d="M66 15q0 18 56 25t71.5 24.5t15.5 99.5l6 414q0 166 -25 196.5t-97 32.5q-24 0 -24 16q0 9 8 14t119 13t154 9l-1 -225l2 -210v-158l-1 -120q0 -72 23.5 -91.5t70.5 -21.5q55 -3 55 -23q0 -16 -21 -16q-8 0 -18 1q-93 12 -173 12q-128 0 -177 -8q-10 -2 -20 -2 q-24 0 -24 18zM-2 1059q0 40 27.5 66t64.5 26t64.5 -27t27.5 -65t-27.5 -65t-64.5 -27q-38 0 -65 26.5t-27 65.5zM377 1059q0 38 27 65t64 27t64.5 -26t27.5 -66q0 -39 -27 -65.5t-65 -26.5q-37 0 -64 26.5t-27 65.5z" />
<glyph unicode="&#xf0;" horiz-adv-x="1003" d="M72 411q0 181 119 312.5t306 131.5q106 0 211 -70q-85 194 -204 350l-177 -137l-29 33l176 139l-95 107l-93 80h85q88 -58 167 -135l170 135l32 -34l-167 -133q190 -190 275 -384.5t85 -352.5q0 -209 -130 -340.5t-306 -131.5q-179 0 -302 125.5t-123 304.5zM229 432 q0 -194 80.5 -302.5t192.5 -108.5q103 0 187.5 98.5t84.5 281.5q0 186 -71.5 300.5t-196.5 114.5q-118 0 -197.5 -110.5t-79.5 -273.5z" />
<glyph unicode="&#xf1;" horiz-adv-x="1088" d="M66 15q0 17 48 26q46 9 62 31.5t21.5 149.5t5.5 317q0 177 -24 220t-67 53q-39 9 -39 25q0 17 30 17l81 -1q13 0 135 3q24 -59 29 -199q62 98 137.5 147t164.5 49q68 0 131.5 -25.5t98 -88t34.5 -212.5l-6 -337q0 -93 15.5 -116.5t66.5 -37.5q35 -10 35 -22 q0 -15 -17 -15q-7 0 -14 1q-46 10 -136 10q-81 0 -174 -7q-37 0 -37 17q0 12 20 16q55 12 72 25t24 34.5t11.5 144.5t4.5 200q0 211 -53 281t-132 70q-117 0 -194.5 -126.5t-77.5 -421.5q0 -134 17.5 -170.5t87.5 -44.5q22 -2 22 -19q0 -14 -22 -14l-52 4q-28 2 -185 2 l-80 -2q-44 0 -44 16zM287 957q0 73 44.5 140.5t122.5 67.5q46 0 119 -46q75 -46 121 -46q77 0 88 76q2 15 33 15q14 0 14 -19q0 -81 -46 -143.5t-118 -62.5q-59 0 -125 46q-77 52 -116 52q-34 0 -60 -21q-27 -21 -31 -52q-4 -24 -25 -24t-21 17z" />
<glyph unicode="&#xf2;" horiz-adv-x="1003" d="M69 418q0 176 127 310t312 134q174 0 299.5 -120t125.5 -300q0 -182 -132 -319.5t-308 -137.5q-174 0 -299 126.5t-125 306.5zM231 424q0 -172 79.5 -286t196.5 -114q107 0 188.5 107t81.5 284q0 158 -78.5 281.5t-203.5 123.5q-116 0 -190 -112.5t-74 -283.5zM297 1249 q0 63 64 63q35 0 62.5 -23t72.5 -86l154 -216q29 -39 29 -48q0 -13 -15 -13q-9 0 -32 18l-237 180q-98 74 -98 125z" />
<glyph unicode="&#xf3;" horiz-adv-x="1003" d="M69 418q0 176 127 310t312 134q174 0 299.5 -120t125.5 -300q0 -182 -132 -319.5t-308 -137.5q-174 0 -299 126.5t-125 306.5zM231 424q0 -172 79.5 -286t196.5 -114q107 0 188.5 107t81.5 284q0 158 -78.5 281.5t-203.5 123.5q-116 0 -190 -112.5t-74 -283.5zM360 939 q0 9 28 48l154 216q45 63 72.5 86t62.5 23q64 0 64 -63q0 -51 -98 -125l-236 -180q-24 -18 -33 -18q-14 0 -14 13z" />
<glyph unicode="&#xf4;" horiz-adv-x="1003" d="M69 418q0 176 127 310t312 134q174 0 299.5 -120t125.5 -300q0 -182 -132 -319.5t-308 -137.5q-174 0 -299 126.5t-125 306.5zM231 424q0 -172 79.5 -286t196.5 -114q107 0 188.5 107t81.5 284q0 158 -78.5 281.5t-203.5 123.5q-116 0 -190 -112.5t-74 -283.5zM243 958 q0 5 13 30l192 347h110l190 -347q12 -22 12 -31q0 -16 -15 -16q-10 0 -22 15q-5 6 -13 14l-207 214l-204 -214q-27 -28 -36 -28q-20 0 -20 16z" />
<glyph unicode="&#xf5;" horiz-adv-x="1003" d="M69 418q0 176 127 310t312 134q174 0 299.5 -120t125.5 -300q0 -182 -132 -319.5t-308 -137.5q-174 0 -299 126.5t-125 306.5zM231 424q0 -172 79.5 -286t196.5 -114q107 0 188.5 107t81.5 284q0 158 -78.5 281.5t-203.5 123.5q-116 0 -190 -112.5t-74 -283.5zM230 957 q0 73 44.5 140.5t122.5 67.5q46 0 119 -46q75 -46 121 -46q77 0 88 76q2 15 33 15q14 0 14 -19q0 -81 -46 -143.5t-118 -62.5q-59 0 -125 46q-77 52 -116 52q-34 0 -60 -21q-27 -21 -31 -52q-4 -24 -25 -24t-21 17z" />
<glyph unicode="&#xf6;" horiz-adv-x="1003" d="M69 418q0 176 127 310t312 134q174 0 299.5 -120t125.5 -300q0 -182 -132 -319.5t-308 -137.5q-174 0 -299 126.5t-125 306.5zM231 424q0 -172 79.5 -286t196.5 -114q107 0 188.5 107t81.5 284q0 158 -78.5 281.5t-203.5 123.5q-116 0 -190 -112.5t-74 -283.5zM220 1059 q0 40 27.5 66t64.5 26t64.5 -27t27.5 -65t-27.5 -65t-64.5 -27q-38 0 -65 26.5t-27 65.5zM599 1059q0 38 27 65t64 27t64.5 -26t27.5 -66q0 -39 -27 -65.5t-65 -26.5q-37 0 -64 26.5t-27 65.5z" />
<glyph unicode="&#xf7;" horiz-adv-x="1365" d="M146 490v86h1074v-86h-1074zM618 953q0 23 18 39.5t45 16.5q25 0 42.5 -18t17.5 -43t-17.5 -44t-42.5 -19q-26 0 -44.5 20t-18.5 48zM619 125q0 26 18 44t44 18q25 0 43.5 -18t18.5 -44q0 -25 -18.5 -43.5t-43.5 -18.5q-26 0 -44 18.5t-18 43.5z" />
<glyph unicode="&#xf8;" horiz-adv-x="1003" d="M67 -54l136 157q-134 130 -134 315q0 172 127.5 308t311.5 136q152 0 273 -96l127 146l34 -29l-128 -147q120 -123 120 -294q0 -182 -132 -319.5t-309 -137.5q-139 0 -257 89l-136 -155zM232 433q0 -136 48 -241l428 491q-80 137 -213 137q-122 0 -192.5 -116t-70.5 -271 zM303 151q81 -127 204 -127q115 0 193 113.5t78 277.5q0 119 -48 225z" />
<glyph unicode="&#xf9;" horiz-adv-x="1045" d="M78 823q0 17 48 17h184q5 -65 9 -376q2 -194 10 -258.5t50.5 -106.5t97.5 -42q72 0 144.5 67t89.5 143.5t17 351.5q0 128 -16 155t-78 31q-23 1 -23 17q0 11 7 14.5t45 3.5h200q9 -109 9 -244l-8 -376q0 -116 19.5 -146t61.5 -34q26 -4 26 -20q0 -18 -51 -18h-158 q-41 0 -41 27q0 8 1 18q3 30 3 61q0 26 -3 76q-76 -98 -158 -147t-171 -49q-76 0 -127.5 37t-68 89.5t-22.5 261.5t-6 328q0 65 -7 81t-44 18q-40 3 -40 20zM283 1249q0 63 64 63q35 0 62.5 -23t72.5 -86l154 -216q29 -39 29 -48q0 -13 -15 -13q-9 0 -32 18l-237 180 q-98 74 -98 125z" />
<glyph unicode="&#xfa;" horiz-adv-x="1045" d="M78 823q0 17 48 17h184q5 -65 9 -376q2 -194 10 -258.5t50.5 -106.5t97.5 -42q72 0 144.5 67t89.5 143.5t17 351.5q0 128 -16 155t-78 31q-23 1 -23 17q0 11 7 14.5t45 3.5h200q9 -109 9 -244l-8 -376q0 -116 19.5 -146t61.5 -34q26 -4 26 -20q0 -18 -51 -18h-158 q-41 0 -41 27q0 8 1 18q3 30 3 61q0 26 -3 76q-76 -98 -158 -147t-171 -49q-76 0 -127.5 37t-68 89.5t-22.5 261.5t-6 328q0 65 -7 81t-44 18q-40 3 -40 20zM382 939q0 9 28 48l154 216q45 63 72.5 86t62.5 23q64 0 64 -63q0 -51 -98 -125l-236 -180q-24 -18 -33 -18 q-14 0 -14 13z" />
<glyph unicode="&#xfb;" horiz-adv-x="1045" d="M78 823q0 17 48 17h184q5 -65 9 -376q2 -194 10 -258.5t50.5 -106.5t97.5 -42q72 0 144.5 67t89.5 143.5t17 351.5q0 128 -16 155t-78 31q-23 1 -23 17q0 11 7 14.5t45 3.5h200q9 -109 9 -244l-8 -376q0 -116 19.5 -146t61.5 -34q26 -4 26 -20q0 -18 -51 -18h-158 q-41 0 -41 27q0 8 1 18q3 30 3 61q0 26 -3 76q-76 -98 -158 -147t-171 -49q-76 0 -127.5 37t-68 89.5t-22.5 261.5t-6 328q0 65 -7 81t-44 18q-40 3 -40 20zM265 958q0 5 13 30l192 347h110l190 -347q12 -22 12 -31q0 -16 -15 -16q-10 0 -22 15q-5 6 -13 14l-207 214 l-204 -214q-27 -28 -36 -28q-20 0 -20 16z" />
<glyph unicode="&#xfc;" horiz-adv-x="1045" d="M78 823q0 17 48 17h184q5 -65 9 -376q2 -194 10 -258.5t50.5 -106.5t97.5 -42q72 0 144.5 67t89.5 143.5t17 351.5q0 128 -16 155t-78 31q-23 1 -23 17q0 11 7 14.5t45 3.5h200q9 -109 9 -244l-8 -376q0 -116 19.5 -146t61.5 -34q26 -4 26 -20q0 -18 -51 -18h-158 q-41 0 -41 27q0 8 1 18q3 30 3 61q0 26 -3 76q-76 -98 -158 -147t-171 -49q-76 0 -127.5 37t-68 89.5t-22.5 261.5t-6 328q0 65 -7 81t-44 18q-40 3 -40 20zM242 1059q0 40 27.5 66t64.5 26t64.5 -27t27.5 -65t-27.5 -65t-64.5 -27q-38 0 -65 26.5t-27 65.5zM621 1059 q0 38 27 65t64 27t64.5 -26t27.5 -66q0 -39 -27 -65.5t-65 -26.5q-37 0 -64 26.5t-27 65.5z" />
<glyph unicode="&#xfd;" d="M18 -406q0 38 30.5 67t62.5 29q82 0 89 -82q4 -55 49 -55q72 0 160.5 151t88.5 236q0 67 -68.5 236t-152.5 365.5t-114.5 231t-66.5 39.5q-33 4 -33 20q0 19 24 19q10 0 23 -2q58 -7 133 -7q160 0 195 7q21 4 29 4q25 0 25 -19q0 -16 -44 -27q-79 -21 -79 -76 q0 -47 228 -584q109 296 140 402.5t31 170.5q0 83 -104 92q-29 3 -29 20q0 16 23 16q8 0 54 -3q18 -1 63 -1q133 0 178 4q20 2 28 2q25 0 25 -17q0 -15 -27 -21q-80 -18 -126.5 -116.5t-168.5 -457.5q-119 -351 -191.5 -506.5t-151 -215t-154.5 -59.5q-78 0 -123.5 45 t-45.5 92zM401 939q0 9 28 48l154 216q45 63 72.5 86t62.5 23q64 0 64 -63q0 -51 -98 -125l-236 -180q-24 -18 -33 -18q-14 0 -14 13z" />
<glyph unicode="&#xfe;" horiz-adv-x="1045" d="M20 -480q0 15 26 17q97 5 118.5 55t21.5 451l12 1031q0 166 -19 206t-89 46q-28 2 -28 22q0 16 34 16h238v-677q57 72 124.5 108t145.5 36q148 0 256.5 -122.5t108.5 -297.5q0 -192 -131.5 -309t-273.5 -117q-137 0 -236 80q-5 -217 -5 -318q0 -100 5 -130.5t32 -52.5 t66 -28q43 -7 43 -24q0 -16 -17 -16q-9 0 -29 2q-54 6 -272 6q-56 0 -80 -4q-17 -2 -27 -2q-24 0 -24 22zM326 381q0 -140 17.5 -205.5t70 -106.5t128.5 -41q114 0 192 101t78 269q0 171 -73 270.5t-184 99.5q-76 0 -131.5 -46t-76.5 -119.5t-21 -221.5z" />
<glyph unicode="&#xff;" d="M18 -406q0 38 30.5 67t62.5 29q82 0 89 -82q4 -55 49 -55q72 0 160.5 151t88.5 236q0 67 -68.5 236t-152.5 365.5t-114.5 231t-66.5 39.5q-33 4 -33 20q0 19 24 19q10 0 23 -2q58 -7 133 -7q160 0 195 7q21 4 29 4q25 0 25 -19q0 -16 -44 -27q-79 -21 -79 -76 q0 -47 228 -584q109 296 140 402.5t31 170.5q0 83 -104 92q-29 3 -29 20q0 16 23 16q8 0 54 -3q18 -1 63 -1q133 0 178 4q20 2 28 2q25 0 25 -17q0 -15 -27 -21q-80 -18 -126.5 -116.5t-168.5 -457.5q-119 -351 -191.5 -506.5t-151 -215t-154.5 -59.5q-78 0 -123.5 45 t-45.5 92zM231 1059q0 40 27.5 66t64.5 26t64.5 -27t27.5 -65t-27.5 -65t-64.5 -27q-38 0 -65 26.5t-27 65.5zM610 1059q0 38 27 65t64 27t64.5 -26t27.5 -66q0 -39 -27 -65.5t-65 -26.5q-37 0 -64 26.5t-27 65.5z" />
<glyph unicode="&#x131;" horiz-adv-x="533" d="M66 15q0 18 56 25t71.5 24.5t15.5 99.5l6 414q0 166 -25 196.5t-97 32.5q-24 0 -24 16q0 9 8 14t119 13t154 9l-1 -225l2 -210v-158l-1 -120q0 -72 23.5 -91.5t70.5 -21.5q55 -3 55 -23q0 -16 -21 -16q-8 0 -18 1q-93 12 -173 12q-128 0 -177 -8q-10 -2 -20 -2 q-24 0 -24 18z" />
<glyph unicode="&#x152;" horiz-adv-x="2240" d="M94 646q0 265 197.5 472t467.5 207q58 0 147 -8q182 -17 235 -17q29 0 132 7q99 8 142 8h623q16 -54 38.5 -167.5t22.5 -133.5q0 -23 -16 -23q-9 0 -19 16q-10 17 -73 99.5t-144 122.5t-279 40q-131 0 -209 -19q-13 -206 -13 -391q0 -84 2 -142q78 -3 96 -3 q103 0 156 22.5t88.5 81.5t41.5 83q6 31 23 31q16 0 16 -25q0 -9 -1 -21q-10 -93 -10 -199l8 -242q0 -25 -16 -25q-17 0 -21 25q-12 84 -58.5 138t-119 67.5t-203.5 15.5q-4 -176 -4 -203q0 -225 16 -294.5t78 -99t178 -29.5q399 0 513 277q10 26 25 26t15 -22q0 -8 -2 -18 l-68 -302h-509q-150 0 -275 9q-87 7 -139 7q-108 0 -272 -15q-120 -11 -184 -11q-263 0 -444.5 184.5t-181.5 470.5zM314 671q0 -248 113 -437.5t334 -189.5q143 0 249 80.5t138 218t32 360.5q0 195 -38 315t-136.5 189.5t-241.5 69.5q-202 0 -326 -169t-124 -437z" />
<glyph unicode="&#x153;" horiz-adv-x="1600" d="M72 412q0 168 137 308.5t317 140.5q205 0 342 -176q139 171 314 171q139 0 243 -107.5t104 -298.5q-227 -8 -256 -8q-120 0 -319 8q-1 -31 -1 -46q0 -156 71.5 -265.5t191.5 -109.5q133 0 210 94q29 35 41 35q15 0 15 -15q0 -35 -93 -99.5t-222 -64.5q-74 0 -138 25.5 t-93.5 54.5t-105.5 125q-78 -115 -181.5 -159t-178.5 -44q-156 0 -277 129.5t-121 301.5zM248 435q0 -120 32 -218t84.5 -146.5t129.5 -48.5q125 0 202.5 127t77.5 296q0 165 -64.5 272t-180.5 107q-148 0 -214.5 -116.5t-66.5 -272.5zM954 485q81 -1 114 -1q213 0 262 20 t49 90q0 97 -57 161t-145 64q-212 0 -223 -334z" />
<glyph unicode="&#x178;" horiz-adv-x="1451" d="M34 1281q0 11 9.5 14.5t56.5 3.5h437q45 0 54 -3t9 -16q0 -16 -25 -18q-126 -10 -126 -76q0 -34 46 -107t280 -395q56 62 170.5 224t135 201.5t20.5 62.5q0 41 -41.5 65.5t-84.5 24.5q-34 0 -34 18q0 19 57 19h377q52 0 52 -21q0 -17 -23 -17q-59 0 -113.5 -27 t-132.5 -121l-174 -235q-137 -184 -148 -216q-16 -47 -16 -249q0 -268 22.5 -318t145.5 -61q32 -3 32 -20q0 -20 -35 -20l-269 6q-97 0 -159 -4q-50 -4 -64 -4q-38 0 -38 20q0 16 28 17q96 4 128 72t32 201q0 146 -18 236q-4 23 -86 163.5t-200.5 311t-169.5 207.5t-99 41 q-36 3 -36 20zM445 1530q0 40 27.5 66t64.5 26t64.5 -27t27.5 -65t-27.5 -65t-64.5 -27q-38 0 -65 26.5t-27 65.5zM824 1530q0 38 27 65t64 27t64.5 -26t27.5 -66q0 -39 -27 -65.5t-65 -26.5q-37 0 -64 26.5t-27 65.5z" />
<glyph unicode="&#x2c6;" horiz-adv-x="683" d="M83 958q0 5 13 30l192 347h110l190 -347q12 -22 12 -31q0 -16 -15 -16q-10 0 -22 15q-5 6 -13 14l-207 214l-204 -214q-27 -28 -36 -28q-20 0 -20 16z" />
<glyph unicode="&#x2c9;" horiz-adv-x="683" d="M62 969v96h558v-96h-558z" />
<glyph unicode="&#x2da;" horiz-adv-x="683" d="M180 1122q0 69 48 115.5t113 46.5q66 0 114 -46.5t48 -115.5q0 -66 -47.5 -113.5t-114.5 -47.5t-114 47.5t-47 113.5zM243 1122q0 -41 29 -69.5t69 -28.5q41 0 70 29t29 69q0 41 -29 70t-70 29q-40 0 -69 -29t-29 -70z" />
<glyph unicode="&#x2dc;" horiz-adv-x="683" d="M70 957q0 73 44.5 140.5t122.5 67.5q46 0 119 -46q75 -46 121 -46q77 0 88 76q2 15 33 15q14 0 14 -19q0 -81 -46 -143.5t-118 -62.5q-59 0 -125 46q-77 52 -116 52q-34 0 -60 -21q-27 -21 -31 -52q-4 -24 -25 -24t-21 17z" />
<glyph unicode="&#x2000;" horiz-adv-x="881" />
<glyph unicode="&#x2001;" horiz-adv-x="1763" />
<glyph unicode="&#x2002;" horiz-adv-x="881" />
<glyph unicode="&#x2003;" horiz-adv-x="1763" />
<glyph unicode="&#x2004;" horiz-adv-x="587" />
<glyph unicode="&#x2005;" horiz-adv-x="440" />
<glyph unicode="&#x2006;" horiz-adv-x="293" />
<glyph unicode="&#x2007;" horiz-adv-x="293" />
<glyph unicode="&#x2008;" horiz-adv-x="220" />
<glyph unicode="&#x2009;" horiz-adv-x="352" />
<glyph unicode="&#x200a;" horiz-adv-x="97" />
<glyph unicode="&#x2010;" horiz-adv-x="704" d="M34 389v56q0 31 5.5 35.5t45.5 4.5h553q25 0 28.5 -4.5t3.5 -35.5v-56q0 -29 -5 -33t-41 -4h-539q-40 0 -45.5 5t-5.5 32z" />
<glyph unicode="&#x2011;" horiz-adv-x="704" d="M34 389v56q0 31 5.5 35.5t45.5 4.5h553q25 0 28.5 -4.5t3.5 -35.5v-56q0 -29 -5 -33t-41 -4h-539q-40 0 -45.5 5t-5.5 32z" />
<glyph unicode="&#x2012;" horiz-adv-x="704" d="M34 389v56q0 31 5.5 35.5t45.5 4.5h553q25 0 28.5 -4.5t3.5 -35.5v-56q0 -29 -5 -33t-41 -4h-539q-40 0 -45.5 5t-5.5 32z" />
<glyph unicode="&#x2013;" d="M-12 466v92h1048v-92h-1048z" />
<glyph unicode="&#x2014;" horiz-adv-x="2048" d="M-12 466v92h2072v-92h-2072z" />
<glyph unicode="&#x2018;" horiz-adv-x="427" d="M120 1055q0 97 103.5 185t131.5 88q20 0 20 -18q0 -8 -70 -66q-76 -63 -76 -108q0 -26 46 -49q51 -25 51 -72q0 -32 -24.5 -55.5t-64.5 -23.5q-47 0 -82 34t-35 85z" />
<glyph unicode="&#x2019;" horiz-adv-x="427" d="M52 953q0 9 69 66q77 64 77 109q0 26 -47 49q-50 25 -50 72q0 32 24 55.5t64 23.5q47 0 82.5 -33.5t35.5 -85.5q0 -98 -103.5 -185.5t-132.5 -87.5q-19 0 -19 17z" />
<glyph unicode="&#x201a;" horiz-adv-x="427" d="M57 -207q0 8 69 66q77 63 77 108q0 26 -47 49q-50 25 -50 72q0 32 24 55.5t64 23.5q48 0 83 -34t35 -85q0 -97 -104 -185t-132 -88q-19 0 -19 18z" />
<glyph unicode="&#x201c;" horiz-adv-x="725" d="M96 1055q0 98 103.5 185.5t131.5 87.5q20 0 20 -17q0 -9 -70 -66q-76 -64 -76 -109q0 -26 46 -49q51 -25 51 -72q0 -32 -24.5 -55.5t-64.5 -23.5q-47 0 -82 34t-35 85zM442 1055q0 98 103.5 185.5t131.5 87.5q19 0 19 -17q0 -9 -69 -66q-76 -64 -76 -109q0 -26 46 -49 q50 -25 50 -72q0 -32 -24 -55.5t-64 -23.5q-48 0 -82.5 34t-34.5 85z" />
<glyph unicode="&#x201d;" horiz-adv-x="725" d="M33 953q0 9 69 66q77 64 77 109q0 26 -47 49q-50 25 -50 72q0 32 24 55.5t64 23.5q47 0 82.5 -33.5t35.5 -85.5q0 -98 -103.5 -185.5t-132.5 -87.5q-19 0 -19 17zM379 953q0 9 69 66q76 64 76 109q0 26 -46 49q-51 25 -51 72q0 32 24.5 55.5t64.5 23.5q47 0 82 -33.5 t35 -85.5q0 -97 -103.5 -185t-131.5 -88q-19 0 -19 17z" />
<glyph unicode="&#x201e;" horiz-adv-x="789" d="M72 -298q0 8 21 20q47 26 93 92t46 133q0 37 -38 40q-60 5 -83 35t-23 59q0 40 29 72t83 32q52 0 96 -46t44 -106q0 -85 -53 -174.5t-118 -133.5t-80 -44q-17 0 -17 21zM430 -298q0 8 21 20q47 26 93.5 92t46.5 133q0 37 -39 40q-60 5 -83 35t-23 59q0 40 29.5 72 t82.5 32q52 0 96 -46t44 -106q0 -83 -52 -174t-118 -134.5t-81 -43.5q-17 0 -17 21z" />
<glyph unicode="&#x2022;" horiz-adv-x="725" d="M112 677q0 104 73.5 177.5t177.5 73.5t177.5 -73.5t73.5 -177.5q0 -103 -74 -177t-177 -74q-104 0 -177.5 73.5t-73.5 177.5z" />
<glyph unicode="&#x2026;" horiz-adv-x="2048" d="M243 86q0 40 29 69t69 29t69.5 -28t29.5 -70q0 -41 -29 -70t-70 -29q-40 0 -69 29t-29 70zM926 86q0 42 29 70t69 28t69 -28t29 -70q0 -41 -28.5 -70t-69.5 -29t-69.5 29t-28.5 70zM1608 86q0 40 29 69t70 29q40 0 69 -28.5t29 -69.5t-29 -70t-69 -29q-41 0 -70 29 t-29 70z" />
<glyph unicode="&#x202f;" horiz-adv-x="352" />
<glyph unicode="&#x2039;" horiz-adv-x="576" d="M65 419l378 357q15 12 21 18q18 16 29 16q18 0 18 -7q0 -6 -12 -23l-239 -361q253 -376 253 -383q0 -5 -14 -5q-9 0 -20 1q-25 19 -414 387z" />
<glyph unicode="&#x203a;" horiz-adv-x="576" d="M64 36q0 7 253 383l-251 384q0 7 18 7q12 0 29 -16q6 -6 21 -18q189 -179 378 -357q-335 -325 -414 -387q-11 -1 -20 -1q-14 0 -14 5z" />
<glyph unicode="&#x205f;" horiz-adv-x="440" />
<glyph unicode="&#x20ac;" d="M37 442l14 58h127l-2 28q0 21 4 54h-143l14 57h135q38 201 166 324.5t297 123.5q146 0 238 -62.5t92 -158.5q0 -39 -23 -68.5t-59 -29.5q-31 0 -51.5 21.5t-20.5 54.5q0 24 26 62q17 26 17 38q0 45 -63.5 75t-155.5 30q-125 0 -202 -106t-99 -304h379l-14 -57h-369 l-2 -54l2 -28h383l-14 -58h-367q15 -197 95.5 -308t189.5 -111q96 0 183 55.5t116 133.5q9 26 18 26q19 0 19 -25q0 -70 -104.5 -150.5t-239.5 -80.5q-168 0 -288.5 127t-152.5 333h-145z" />
<glyph unicode="&#x2122;" horiz-adv-x="2005" d="M30 1196l21 201h728l22 -201h-34q-5 50 -41.5 95.5t-152.5 45.5h-75v-579q0 -84 20 -106.5t86 -25.5v-36h-374v36q55 4 77.5 19.5t22.5 111.5v580h-76q-90 0 -133 -29.5t-57 -111.5h-34zM858 590v36q70 0 91.5 23.5t21.5 107.5v466q0 89 -19.5 113t-93.5 24v37h286 l273 -572l265 572h279v-37q-71 -2 -91 -25.5t-20 -109.5v-468q0 -85 19 -106t92 -25v-36h-398v36q74 2 96.5 26t22.5 104v492l-307 -658h-32l-309 649v-482q0 -77 18 -104t76 -27h36v-36h-306z" />
<glyph unicode="&#xe000;" horiz-adv-x="855" d="M0 855h855v-855h-855v855z" />
<glyph unicode="&#xfb01;" horiz-adv-x="1109" d="M642 15q0 18 56 25t71.5 24.5t15.5 99.5l6 414q0 166 -25 196.5t-97 32.5q-24 0 -24 16q0 9 8 14t119 13t154 9l-1 -225l2 -210v-158l-1 -120q0 -72 23.5 -91.5t70.5 -21.5q55 -3 55 -23q0 -16 -21 -16q-8 0 -18 1q-93 12 -173 12q-128 0 -177 -8q-10 -2 -20 -2 q-24 0 -24 18zM723 1255q0 41 25.5 67t66.5 26q38 0 68 -28t30 -61q0 -39 -24.5 -67t-67.5 -28q-38 0 -68 24.5t-30 66.5zM47 783q0 36 18 47t135 14q0 175 27 279t116 172.5t223 68.5q125 0 180 -44t55 -109q0 -70 -66 -70q-24 0 -40 17t-48 80q-46 90 -129 90 q-119 0 -153.5 -118t-34.5 -246q0 -57 4 -120q31 1 50 1q78 0 115.5 -6.5t37.5 -25.5q0 -17 -12 -35t-50 -21.5t-82 -3.5q-23 0 -59 2q-4 -39 -4 -250q0 -272 2 -334t33.5 -101.5t105.5 -48.5q28 -3 28 -20q0 -14 -22 -14l-168 10q-163 0 -219 -8h-11q-22 0 -22 15 q0 18 35 23q46 6 65 21t25.5 42.5t12.5 192.5t6 328q0 65 -1 144q-75 5 -114 6t-39 22z" />
<glyph unicode="&#xfb02;" horiz-adv-x="1152" d="M610 1307q0 17 32 19q183 12 275 44h17q3 -126 5 -252l-2 -623l4 -302q0 -86 24.5 -124t105.5 -45q32 -3 32 -19q0 -17 -26 -17q-7 0 -17 1q-103 11 -246 11q-87 0 -140 -8q-11 -1 -20 -1q-30 0 -30 18q0 17 27 18q91 1 119.5 52.5t28.5 172.5l-3 570q-1 275 -7.5 328.5 t-41.5 89.5t-98 46q-39 6 -39 21zM47 783q0 36 18 47t135 14q0 175 27 279t116 172.5t223 68.5q125 0 180 -44t55 -109q0 -70 -66 -70q-24 0 -40 17t-48 80q-46 90 -129 90q-119 0 -153.5 -118t-34.5 -246q0 -57 4 -120q31 1 50 1q78 0 115.5 -6.5t37.5 -25.5q0 -17 -12 -35 t-50 -21.5t-82 -3.5q-23 0 -59 2q-4 -39 -4 -250q0 -272 2 -334t33.5 -101.5t105.5 -48.5q28 -3 28 -20q0 -14 -22 -14l-168 10q-163 0 -219 -8h-11q-22 0 -22 15q0 18 35 23q46 6 65 21t25.5 42.5t12.5 192.5t6 328q0 65 -1 144q-75 5 -114 6t-39 22z" />
<glyph unicode="&#xfb03;" horiz-adv-x="1685" d="M1218 15q0 18 56 25t71.5 24.5t15.5 99.5l6 414q0 166 -25 196.5t-97 32.5q-24 0 -24 16q0 9 8 14t119 13t154 9l-1 -225l2 -210v-158l-1 -120q0 -72 23.5 -91.5t70.5 -21.5q55 -3 55 -23q0 -16 -21 -16q-8 0 -18 1q-93 12 -173 12q-128 0 -177 -8q-10 -2 -20 -2 q-24 0 -24 18zM1299 1255q0 41 25.5 67t66.5 26q38 0 68 -28t30 -61q0 -39 -24.5 -67t-67.5 -28q-38 0 -68 24.5t-30 66.5zM623 783q0 36 18 47t135 14q0 175 27 279t116 172.5t223 68.5q125 0 180 -44t55 -109q0 -70 -66 -70q-24 0 -40 17t-48 80q-46 90 -129 90 q-119 0 -153.5 -118t-34.5 -246q0 -57 4 -120q31 1 50 1q78 0 115.5 -6.5t37.5 -25.5q0 -17 -12 -35t-50 -21.5t-82 -3.5q-23 0 -59 2q-4 -39 -4 -250q0 -272 2 -334t33.5 -101.5t105.5 -48.5q28 -3 28 -20q0 -14 -22 -14l-168 10q-163 0 -219 -8h-11q-22 0 -22 15 q0 18 35 23q46 6 65 21t25.5 42.5t12.5 192.5t6 328q0 65 -1 144q-75 5 -114 6t-39 22zM47 783q0 36 18 47t135 14q0 175 27 279t116 172.5t223 68.5q125 0 180 -44t55 -109q0 -70 -66 -70q-24 0 -40 17t-48 80q-46 90 -129 90q-119 0 -153.5 -118t-34.5 -246q0 -57 4 -120 q31 1 50 1q78 0 115.5 -6.5t37.5 -25.5q0 -17 -12 -35t-50 -21.5t-82 -3.5q-23 0 -59 2q-4 -39 -4 -250q0 -272 2 -334t33.5 -101.5t105.5 -48.5q28 -3 28 -20q0 -14 -22 -14l-168 10q-163 0 -219 -8h-11q-22 0 -22 15q0 18 35 23q46 6 65 21t25.5 42.5t12.5 192.5t6 328 q0 65 -1 144q-75 5 -114 6t-39 22z" />
<glyph unicode="&#xfb04;" horiz-adv-x="1728" d="M1186 1307q0 17 32 19q183 12 275 44h17q3 -126 5 -252l-2 -623l4 -302q0 -86 24.5 -124t105.5 -45q32 -3 32 -19q0 -17 -26 -17q-7 0 -17 1q-103 11 -246 11q-87 0 -140 -8q-11 -1 -20 -1q-30 0 -30 18q0 17 27 18q91 1 119.5 52.5t28.5 172.5l-3 570q-1 275 -7.5 328.5 t-41.5 89.5t-98 46q-39 6 -39 21zM623 783q0 36 18 47t135 14q0 175 27 279t116 172.5t223 68.5q125 0 180 -44t55 -109q0 -70 -66 -70q-24 0 -40 17t-48 80q-46 90 -129 90q-119 0 -153.5 -118t-34.5 -246q0 -57 4 -120q31 1 50 1q78 0 115.5 -6.5t37.5 -25.5 q0 -17 -12 -35t-50 -21.5t-82 -3.5q-23 0 -59 2q-4 -39 -4 -250q0 -272 2 -334t33.5 -101.5t105.5 -48.5q28 -3 28 -20q0 -14 -22 -14l-168 10q-163 0 -219 -8h-11q-22 0 -22 15q0 18 35 23q46 6 65 21t25.5 42.5t12.5 192.5t6 328q0 65 -1 144q-75 5 -114 6t-39 22zM47 783 q0 36 18 47t135 14q0 175 27 279t116 172.5t223 68.5q125 0 180 -44t55 -109q0 -70 -66 -70q-24 0 -40 17t-48 80q-46 90 -129 90q-119 0 -153.5 -118t-34.5 -246q0 -57 4 -120q31 1 50 1q78 0 115.5 -6.5t37.5 -25.5q0 -17 -12 -35t-50 -21.5t-82 -3.5q-23 0 -59 2 q-4 -39 -4 -250q0 -272 2 -334t33.5 -101.5t105.5 -48.5q28 -3 28 -20q0 -14 -22 -14l-168 10q-163 0 -219 -8h-11q-22 0 -22 15q0 18 35 23q46 6 65 21t25.5 42.5t12.5 192.5t6 328q0 65 -1 144q-75 5 -114 6t-39 22z" />
</font>
</defs>
</svg>
